Unlimited Backup Ready ! Don't Worry About Dead Links ! Just Reply Or PM About Dead Link ! I Will Update The Links !!!
My name is Emily, I am from USA | Thanks for visiting my post !


Arthur 2011 CAM XviD-NoGRP





Storyline: A drunken playboy stands to lose a wealthy inheritance when he falls for a woman his family doesn't like.

http://www.imdb.com/title/tt1334512/

General
Complete name : Arthur.2011.CAM.XviD-NoGRP.avi
Format : AVI
Format/Info : Audio Video Interleave
File size : 704 MiB
Duration : 1h 44mn
Overall bit rate : 946 Kbps
Writing application : Lavf52.61.0
Video
ID : 0
Format : MPEG-4 Visual
Format profile : [email protected]
Format settings, BVOP : No
Format settings, QPel : No
Format settings, GMC : No warppoints
Format settings, Matrix : Default (H.263)
Codec ID : FMP4
Duration : 1h 44mn
Bit rate : 806 Kbps
Width : 720 pixels
Height : 480 pixels
Display aspect ratio : 16:9
Frame rate : 25.000 fps
Standard : NTSC
Resolution : 8 bits
Colorimetry : 4:2:0
Scan type : Progressive
Bits/(Pixel*Frame) : 0.093
Stream size : 600 MiB (85%)
Writing library : Lavc52.66.0
Audio
ID : 1
Format : MPEG Audio
Format version : Version 1
Format profile : Layer 2
Codec ID : 50
Duration : 1h 44mn
Bit rate mode : Constant
Bit rate : 128 Kbps
Channel(s) : 2 channels
Sampling rate : 44.1 KHz
Stream size : 95.2 MiB (14%)
Alignment : Aligned on interleaves
Interleave, duration : 26 ms (0.65 video frame)
*






DOWNLOAD ( Links are Interchangeable 200 MB parts, 5% Recovery record, No Password, Have Fun !):


From UploadStation ( Download Speed 900KB/s with Free User ):


http://www.uploadstation.com/file/SPqssgp
http://www.uploadstation.com/file/HCtYemw
http://www.uploadstation.com/file/YrFdw5X
http://www.uploadstation.com/file/DccqmE2
*
From FileSonic:


http://www.filesonic.com/file/813442221
http://www.filesonic.com/file/813438731
http://www.filesonic.com/file/813438661
http://www.filesonic.com/file/813408391
*
From FileServe:


http://www.fileserve.com/file/cvgTfm3
http://www.fileserve.com/file/Dn2jtmj
http://www.fileserve.com/file/56N7Wpg
http://www.fileserve.com/file/XWJD3RY
*


It Takes 4 Hours To Upload
20 Mins To Scan
15 Min To Post
Just 5 Seconds To Say "THANKS" Or "WHOOO!"

To download newest free movies visit at: http://mamadownload.blogspot.com/