Unlimited Backup Ready ! Don't Worry About Dead Links ! Just Reply Or PM About Dead Link ! I Will Update The Links !!!
My name is Emily, I am from USA | Thanks for visiting my post !


Deadrise 2011 DVDRip Xvid AC3-Freebee





Storyline: Paula, (Renee O’Connor) an inspector for the Historic Trust, wraps up a successful and important project in the upper Midwest. On her way home to Chicago, she gets a call from her office and is asked to check out a new applicant. It’s on her way anyway, and even though it’s late on Friday, she takes a quick detour and heads to the site of once proud steamship along an industrial waterfront. The ships 400 foot black form looms against the sky, and collects dead fish in stagnant water near the pier. Moments after her arrival, her car is seriously disabled and her life is about to change forever. In the chaos that follows, she meets up with the self appointed caretaker, Vigs (Larry Joe Campbell) who is the odd caretaker on the ship. Making the best of a bad situation, she takes him up on his offer to spend the night in one of the cramped but historic staterooms. He invites her to dinner and bad beer. She gets sick from the food and retires to her room to sleep, but is awakened constantly by startling and compelling commotion that leads her to all points on this dark and frightening ship. In the end, she discovers the truth about herself, and her life will never be the same.

http://www.imdb.com/title/tt1552192/

General
Format : AVI
Format/Info : Audio Video Interleave
File size : 1.32 GiB
Duration : 1h 34mn
Overall bit rate : 2 001 Kbps

Video
ID : 0
Format : MPEG-4 Visual
Format profile : Advanced [email protected]
Format settings, BVOP : 2
Format settings, QPel : Yes
Format settings, GMC : No warppoints
Format settings, Matrix : Default (MPEG)
Codec ID : XVID
Codec ID/Hint : XviD
Duration : 1h 34mn
Bit rate : 1 545 Kbps
Width : 720 pixels
Height : 400 pixels
Display aspect ratio : 16:9
Frame rate : 23.976 fps
Color space : YUV
Chroma subsampling : 4:2:0
Bit depth : 8 bits
Scan type : Progressive
Compression mode : Lossy
Bits/(Pixel*Frame) : 0.224
Stream size : 1.02 GiB (77%)
Writing library : XviD 63

Audio
ID : 1
Format : AC-3
Format/Info : Audio Coding 3
Mode extension : CM (complete main)
Codec ID : 2000
Duration : 1h 34mn
Bit rate mode : Constant
Bit rate : 448 Kbps
Channel(s) : 6 channels
Channel positions : Front: L C R, Side: L R, LFE
Sampling rate : 48.0 KHz
Bit depth : 16 bits
Compression mode : Lossy
Stream size : 303 MiB (22%)
Alignment : Aligned on interleaves
Interleave, duration : 64 ms (1.53 video frames)
Interleave, preload duration : 192 ms
Title : VTS_01_1 T80 3_2ch 448Kbps DELAY 0ms english
Actors: Renee O'Connor, Larry Joe Campbell
Directors: Rich Brauer
Language: English
Studio: Osiris Entertainment
DVD Release Date: April 5, 2011
Run Time: 94 minutes
Sample Included: Yes
Encoder: Freebee269
*








DOWNLOAD ( Links are Interchangeable 200 Mb parts, 5% Recovery record, No Password, Have Fun !) :


From Letitbit:


http://letitbit.net/download/10228.1...art01.rar.html
http://letitbit.net/download/63239.6...art07.rar.html
http://letitbit.net/download/06995.0...art08.rar.html
http://letitbit.net/download/81910.8...art04.rar.html
http://letitbit.net/download/77111.7...art06.rar.html
http://letitbit.net/download/85274.8...art05.rar.html
http://letitbit.net/download/48867.4...art09.rar.html
http://letitbit.net/download/44835.4...art03.rar.html
http://letitbit.net/download/40459.4...art02.rar.html
*
From BitShare:


http://bitshare.com/files/1b26krpx/D...art03.rar.html
http://bitshare.com/files/4sqv6o77/D...art02.rar.html
http://bitshare.com/files/5tsoj44g/D...art08.rar.html
http://bitshare.com/files/cynjfbri/D...art06.rar.html
http://bitshare.com/files/1bcqvaop/D...art07.rar.html
http://bitshare.com/files/kk69129u/D...art05.rar.html
http://bitshare.com/files/ua4qbp7p/D...art09.rar.html
http://bitshare.com/files/f5dhgjsm/D...art04.rar.html
http://bitshare.com/files/4cimnmub/D...art01.rar.html
*
From UploadStation ( Download Speed 400KB/s with Free User ):


http://www.uploadstation.com/file/t4...Net.part01.rar
http://www.uploadstation.com/file/he...Net.part02.rar
http://www.uploadstation.com/file/aZ...Net.part03.rar
http://www.uploadstation.com/file/Be...Net.part04.rar
http://www.uploadstation.com/file/VQ...Net.part05.rar
http://www.uploadstation.com/file/44...Net.part06.rar
http://www.uploadstation.com/file/Er...Net.part07.rar
http://www.uploadstation.com/file/9A...Net.part08.rar
http://www.uploadstation.com/file/rp...Net.part09.rar
*
From DuckLoad:


http://www.duckload.com/download/469...Net.part07.rar
http://www.duckload.com/download/469...Net.part08.rar
http://www.duckload.com/download/469...Net.part06.rar
http://www.duckload.com/download/469...Net.part01.rar
http://www.duckload.com/download/469...Net.part04.rar
http://www.duckload.com/download/469...Net.part03.rar
http://www.duckload.com/download/469...Net.part05.rar
http://www.duckload.com/download/469...Net.part09.rar
http://www.duckload.com/download/469...Net.part02.rar
*
From FileSonic:


http://www.filesonic.com/file/699923...Net.part01.rar
http://www.filesonic.com/file/699798...Net.part02.rar
http://www.filesonic.com/file/699797...Net.part03.rar
http://www.filesonic.com/file/699923...Net.part04.rar
http://www.filesonic.com/file/699923...Net.part05.rar
http://www.filesonic.com/file/699923...Net.part06.rar
http://www.filesonic.com/file/699922...Net.part07.rar
http://www.filesonic.com/file/699923...Net.part08.rar
http://www.filesonic.com/file/699805...Net.part09.rar
*
From FileServe:


http://www.fileserve.com/file/kCXXHU...Net.part01.rar
http://www.fileserve.com/file/c8aTxy...Net.part02.rar
http://www.fileserve.com/file/gT9ByQ...Net.part03.rar
http://www.fileserve.com/file/S3YJzB...Net.part04.rar
http://www.fileserve.com/file/c8hAQX...Net.part05.rar
http://www.fileserve.com/file/NRgXcX...Net.part06.rar
http://www.fileserve.com/file/Q66DZG...Net.part07.rar
http://www.fileserve.com/file/wbepPg...Net.part08.rar
http://www.fileserve.com/file/bcbTJH...Net.part09.rar
*


It Takes 4 Hours To Upload
20 Mins To Scan
15 Min To Post
Just 5 Seconds To Say "THANKS" Or "WHOOO!"