Unlimited Backup Ready ! Don't Worry About Dead Links ! Just Reply Or PM About Dead Link ! I Will Update The Links !!!
My name is Emily, I am from USA | Thanks for visiting my post !


Rio 2011 TS XviD Feel-Free





Storyline: When Blu, a domesticated macaw from small-town Minnesota, meets the fiercely independent Jewel, he takes off on an adventure to Rio de Janeiro with this bird of his dreams.

http://www.imdb.com/title/tt1436562/

Format : AVI
Format/Info : Audio Video Interleave
File size : 634 MiB
Duration : 1h 22mn
Overall bit rate : 1 069 Kbps


Video
ID : 0
Format : MPEG-4 Visual
Format profile : Advanced [email protected]
Format settings, BVOP : Yes
Format settings, QPel : No
Format settings, GMC : No warppoints
Format settings, Matrix : Default (H.263)
Muxing mode : Packed bitstream
Codec ID : XVID
Codec ID/Hint : XviD
Duration : 1h 22mn
Bit rate : 931 Kbps
Width : 688 pixels
Height : 288 pixels
Display aspect ratio : 2.35:1
Frame rate : 25.000 fps
Color space : YUV
Chroma subsampling : 4:2:0
Bit depth : 8 bits
Scan type : Progressive
Bits/(Pixel*Frame) : 0.188
Stream size : 552 MiB (87%)
Writing library : XviD 1.2.1 (UTC 2008-12-04)

Audio
ID : 1
Format : MPEG Audio
Format version : Version 1
Format profile : Layer 3
Mode : Joint stereo
Mode extension : MS Stereo
Codec ID : 55
Codec ID/Hint : MP3
Duration : 1h 22mn
Bit rate mode : Constant
Bit rate : 128 Kbps
Channel(s) : 2 channels
Sampling rate : 44.1 KHz
Stream size : 75.9 MiB (12%)
Alignment : Split accross interleaves
Interleave, duration : 40 ms (1.00 video frame)
Interleave, preload duration : 500 ms
Writing library : LAME3.98r
*






DOWNLOAD ( Links are Interchangeable 200 Mb parts, 5% Recovery record, No Password, Have Fun !) :


From Letitbit:


http://letitbit.net/download/73988.7...part3.rar.html
http://letitbit.net/download/49357.4...part1.rar.html
http://letitbit.net/download/57132.5...part2.rar.html
http://letitbit.net/download/60114.6...part4.rar.html
*
From BitShare:


http://bitshare.com/files/7truc3qh/D...part1.rar.html
http://bitshare.com/files/1dih8yf0/D...part2.rar.html
http://bitshare.com/files/l3yks56u/D...part3.rar.html
http://bitshare.com/files/2vu1tm34/D...part4.rar.html
*
From UploadStation ( Download Speed 400KB/s with Free User ):


http://www.uploadstation.com/file/uN....Net.part1.rar
http://www.uploadstation.com/file/VR....Net.part2.rar
http://www.uploadstation.com/file/De....Net.part3.rar
http://www.uploadstation.com/file/Qa....Net.part4.rar
*
From DuckLoad:


http://www.duckload.com/download/469....Net.part1.rar
http://www.duckload.com/download/469....Net.part2.rar
http://www.duckload.com/download/469....Net.part3.rar
http://www.duckload.com/download/469....Net.part4.rar
*
From FileSonic:


http://www.filesonic.com/file/699961....Net.part1.rar
http://www.filesonic.com/file/699904....Net.part2.rar
http://www.filesonic.com/file/699968....Net.part3.rar
http://www.filesonic.com/file/699897....Net.part4.rar
*
From FileServe:


http://www.fileserve.com/file/9jRyS9....Net.part1.rar
http://www.fileserve.com/file/whFFwQ....Net.part2.rar
http://www.fileserve.com/file/adUCM5....Net.part3.rar
http://www.fileserve.com/file/YcUez7....Net.part4.rar
*


It Takes 4 Hours To Upload
20 Mins To Scan
15 Min To Post
Just 5 Seconds To Say "THANKS" Or "WHOOO!"