Tao Quan 2011 - Thi sat Tran Gian- rip by kedautinh.mkv
General
Complete name : Tao Quan 2011 - Thi sat Tran Gian- rip by kedautinh.mkv
Format : Matroska
File size : 864 MiB
Duration : 1h 5mn
Overall bit rate : 1 833 Kbps
Encoded date : UTC 2011-01-26 0154
Writing application : mkvmerge v4.4.0 ('Die Wiederkehr') built on Oct 31 2010 21:52:48
Writing library : libebml v1.0.0 + libmatroska v1.0.0
Video #1
ID : 1
Format : AVC
Format/Info : Advanced Video Codec
Format profile : [email protected]
Format settings, CABAC : Yes
Format settings, ReFrames : 4 frames
Muxing mode : Container [email protected]
Codec ID : V_MPEG4/ISO/AVC
Duration : 1h 5mn
Bit rate : 1 540 Kbps
Width : 700 pixels
Height : 556 pixels
Display aspect ratio : 4:3
Frame rate : 25.000 fps
Resolution : 24 bits
Colorimetry : 40
Scan type : Progressive
Bits/(Pixel*Frame) : 0.158
Stream size : 726 MiB (84%)
Writing library : x264 core 112 r1867 22bfd31
Language : Vietnamese
Audio #2
ID : 2
Format : AC-3
Format/Info : Audio Coding 3
Codec ID : A_AC3
Duration : 1h 5mn
Bit rate mode : Constant
Bit rate : 256 Kbps
Channel(s) : 2 channels
Channel positions : L R
Sampling rate : 48.0 KHz
Stream size : 121 MiB (14%)
Language : Vietnamese

http://letitbit.net/download/19176.1...art1.rar.html*
http://letitbit.net/download/28107.2...art2.rar.html*
http://letitbit.net/download/43911.4...art3.rar.html*
http://letitbit.net/download/58625.5...art4.rar.html*
http://letitbit.net/download/17999.1...art5.rar.html*

+ Huong Dan Dowload: Vao link dow -> click "Regular download" -> click "Download on slow speed" -> doi dem nguoc ve 0 "Wait for Your turn" -> click "Link to the file download" ---> ok!
Nguồn: vietmmo.vn, Em mới tập post,có gì sai mong Mod đừng chém