+ Viết bài mới
Hiện kết quả từ 1 tới 2 của 2
  1. #1
    Tham gia ngày
    Nov 2010
    Bài gửi
    109
    Thanks
    0
    Thanked 0 Times in 0 Posts
    Năng lực viết bài
    266

    Thumbs up Tuyển tập phim Rạp mới 2010-2011 1 link dow duy nhất

    + Phụ đề tất cả các phim các bạn vô đây tìm và dow nhé, nhớ gõ tên tiếng E phim và tìm sub nào tên giống với bản phim (HD, DVD, DVDrip...): http://subscene.com
    + Cách Dowload: Vô link dow -> click "Regular download" -> click "Download on slow speed" -> đợi đếm ngược về 0 "Wait for Your turn" -> click "Link to the file download" ---> ok!


    Death Race 2 Unrated 2010 BRRip 720p H264 AAC


    In 2012, private corporations own and manage the prison systems. Getaway driver Carl "Luke" Lucas (Luke Goss) is arrested after a robbery for his crime boss Markus Kane (Sean Bean) goes wrong. As his accomplices are robbing the bank, two officers casually enter the building. Luke tells them to abort, but they refuse; Luke intervenes, but it results in the death of one of the three accomplices. Luke shoots and kills one of the officers and dumps off his accomplices in order to fulfill Markus's wishes. In doing so, Luke is eventually captured by the police following a high-speed chase and sentenced to serve time on Terminal Island.

    http://img16.imageshack.us/img16/2580/screen1hw.png
    http://img406.imageshack.us/img406/1887/screen2uj.png
    http://img132.imageshack.us/img132/892/screen4qv.png
    http://img257.imageshack.us/img257/4801/screen5y.png
    http://img375.imageshack.us/img375/9985/screen6xe.png

    #URL.................................: http://www.imdb.com/title/tt1500491/
    #GENRE............................: Action | Sci-Fi | Thriller
    #RATiNG...........................: 5.6/10 (2,358 votes)
    #MPAA RATiNG.................: Rated R for brutal violence, pervasive language and some sexual content.
    #DiRECTOR......................: Roel Reiné
    #WRiTERS.........................: Paul W.S. Anderson (characters and story), Tony Giglio (screenplay)
    #RELEASE DATE................: 18 January 2011 (USA)

    Luke Goss ... Carl 'Luke' Lucas
    Lauren Cohan ... September Jones
    Sean Bean ... Markus Kane
    Ving Rhames ... Weyland
    Tanit Phoenix ... Katrina Banks
    Patrick Lyster ... Warden Parks
    Frederick Koehler ... Lists
    Robin Shou ... 14K
    Danny Trejo ... Goldberg
    Joe Vaz ... Rocco
    Henie Bosman ... Xander grady
    Ricky Botsis ... Terry
    Leon Clingman ... Cell Block A Gaurd
    Warrick Grier ... Calin
    Paul Hampshire ... Bank Cop
    Sean Higgs ... Hillbilly Con

    #ViDEO.............................: H.264/x264 | AVC Profile 5.1
    #CONTAiNER.....................: .MP4
    #ViDEO BiTRATE................: 1 760 Kbps
    #MAXiMUM BiTRATE........: 10.8 Mbps
    #RESOLUTiON...................: 1280 x 720
    #DiSPLAY RATiO................: 16:9
    #FRAME RATE...................: 23.976 fps
    #QUALiTY FACTOR.............: 0.080
    #STREAM SiZE...................: 1.23 GiB (84%)

    #AUDiO.............................: AAC | .mp4a
    #AUDiO BiTRATE...............: 320 Kbps
    #AUDiO SAMPLE RATE.......: 48.0 KHz
    #CHANNEL COUNT.............: 6 Channels | Front: L C R, Side: L R, LFE
    #STREAM SiZE...................: 229 MiB (15%)

    #SUBTiTLES...................: Arabic/Bulgarian/Chinese/Croatian/Czech/Danish/Dutch
    #....................................: English/French/German/Hindi/Italien/Polish/Russain/Spanish/Turkish
    #DURATiON......................: 1h 40mn
    #SOURCE.......................: 720p-CHD | 5.5 GB
    #RELEASE SiZE..............: 1.46 GiB
    #RELEASE DATE............: 14/01/2011


    Unstoppable.2010.720p.BRRip.x264


    Format : Matroska
    File size : 1.82 GiB
    Duration : 1h 38mn
    Overall bit rate : 2 648 Kbps
    Video
    Format settings, CABAC : Yes
    Format settings, ReFrames : 4 frames
    Codec ID : V_MPEG4/ISO/AVC
    Duration : 1h 38mn
    Bit rate : 2 300 Kbps
    Width : 1 280 pixels
    Height : 544 pixels
    Display aspect ratio : 2.35:1
    Frame rate mode : Variable
    Frame rate : 23.976 fps
    Color space : YUV
    Chroma subsampling : 4:2:0
    Bit depth : 8 bits
    Scan type : Progressive
    Bits/(Pixel*Frame) : 0.138
    Stream size : 1.52 GiB (84%)
    Writing library : x264

    Audio
    ID : 2
    Format : AC-3
    Format/Info : Audio Coding 3
    Mode extension : CM (complete main)
    Codec ID : A_AC3
    Duration : 1h 38mn
    Bit rate mode : Constant
    Bit rate : 384 Kbps
    Channel(s) : 6 channels
    Channel positions : Front: L C R, Side: L R, LFE
    Sampling rate : 48.0 KHz
    Bit depth : 16 bits
    Video delay : -1mn 5s
    Stream size : 271 MiB (14%)
    Language : English

    Plot:
    With an unmanned, half-mile-long freight train barreling toward a city, a veteran engineer and a young conductor race against the clock to prevent a catastrophe

    http://shareimage.org/images/q6gvrskntlcsjs6rk7oo.png
    http://shareimage.org/images/mp4gxnedmd4vxrnm8u2c.png
    http://shareimage.org/images/dce9cubfonl8udq6saxf.png
    http://shareimage.org/images/oulm1md0anjgbuyuro.png
    http://shareimage.org/images/fqw8po41t7od619qd5b.png
    http://shareimage.org/images/bklmzhhhanymx11regzo.png*


    Salt (2010) BRRip 1080p Multi Audio Hindi Eng x264



    Multi Audio
    Release Hindi Title: Chalbaaz Jasoos
    Release On DvD: 28 November 2010 (India)
    Certification:
    Rated PG-13 for intense sequences of violence and action.
    Taglines:
    Salt Will Not Be Stopped
    release info:
    http://img413.imageshack.us/img413/6894/st03t.jpg

    Plot:
    A CIA agent goes on the run after a defector accuses her of being a Russian spy.
    Storyline:
    Evelyn Salt is a CIA agent and highly respected by all, including her boss, Ted Winter. Out of the blue, a Russian spy walks into their offices and offers a vital piece of information: the President of Russia will be assassinated during his forthcoming visit to New York City to attend the funeral of the recently deceased U.S. Vice President. The name of the assassin: Evelyn Salt. Concerned about the safety of her husband, who she cannot contact, she goes on the run. Winter refuses to accept that she is a mole or a double agent but her actions begin to raise doubts. Just who is Evelyn Salt and what is she planning?
    SCREENSHOTS:
    http://img443.imageshack.us/img443/6413/st04w.jpg
    http://img441.imageshack.us/img441/7290/st05z.jpg
    http://img406.imageshack.us/img406/1984/st06.jpg
    http://img26.imageshack.us/img26/9398/st07u.jpg
    http://img217.imageshack.us/img217/5758/st08.jpg
    http://img148.imageshack.us/img148/4032/st09.jpg
    http://img59.imageshack.us/img59/4194/st10u.jpg
    http://img826.imageshack.us/img826/7932/st11p.jpg
    http://img30.imageshack.us/img30/1993/st13.jpg
    http://img42.imageshack.us/img42/3692/st16.jpg
    http://img815.imageshack.us/img815/7599/st17.jpg
    http://img18.imageshack.us/img18/3379/st18.jpg
    http://img33.imageshack.us/img33/949/st19.jpg*

    Sub Việt:
    http://subscene.com/Salt/subtitles-83753.aspx

    Skyline 2010 720p BRRip H264 AAC






    Release Title: Skyline 2010 720p BRRip H264 AAC - IceBane (Kingdom Release)
    Release Date: 12 November 2010 (USA)
    Release Length: 01:28:44
    Genre: Sci-Fi | Thriller
    Language: English
    Awards: None
    Original Source: Skyline 2010 720p BluRay DTS x264-DNL
    Total Size: 2.04 GB
    MPAA Rating: Rated PG-13 for sequences of intense sci-fi action and violence, some language, and brief sexual content.
    File Format: MP-4

    Storyline:
    Strange lights descend on the city of Los Angeles, drawing people outside like moths to a flame
    where an extraterrestrial force threatens to swallow the entire human population off the face of the Earth.

    Cast:
    Eric Balfour ... Jarrod
    Scottie Thompson ... Elaine
    Brittany Daniel ... Candice
    Crystal Reed ... Denise
    Neil Hopkins ... Ray
    David Zayas ... Oliver
    Donald Faison ... Terry
    Robin Gammell ... Walt
    Tanya Newbould ... Jen
    J. Paul Boehmer ... Colin

    Video Specs:
    Format: H.264/MPEG-4 AVC
    Bitrate Mode: Variable
    Bitrate: 2948 Kbps
    Maximum Bit Rate: 25.0 Mbps
    Encoding: 2 Pass
    Resolution: 1280 x 720
    Quality Factor (QF): 0.128
    Display Aspect Ratio: 16:9
    Frame Rate Mode: Constant
    Frame Rate: 25.000 fps
    Size: 1.83 GiB
    Audio Specs:
    Type: mp4a: MPEG-4 AAC LC
    Format Version: Version 4
    Frame Rate Mode: Variable
    Bitrate: 317 Kbps
    Maximum Bit Rate: 332 Kbps
    Sample Rate: 48000Hz
    Channels: 6 Ch - Front: L C R, Side: L R, LFE
    Size: 201 MiB
    Subtitle: Danish, English, French, Vietnamese

    IMDB Link: http://www.imdb.com/title/tt1564585/
    Screenshots:
    http://img339.imageshack.us/img339/5871/skyline1.png
    http://img258.imageshack.us/img258/4690/skyline2c.png
    http://img706.imageshack.us/img706/6140/skyline3.png
    http://img510.imageshack.us/img510/1135/skyline4.png*

    Trailer:
    http://www.youtube.com/watch?v=1rtqU...eature=related


    Sub Viet:
    http://subscene.com/vietnamese/Skyli...le-398947.aspx


    Bẫy rồng 2009 Ngô Thanh Vân - Johny Trí Nguyễn DVD 1 link




    + Dowload: Vao link dow -> click "Regular download" -> click "Download on slow speed" -> doi dem nguoc ve 0 "Wait for Your turn" -> click "Link to the file download" ---> ok!


    Stone 2010 BRRip


    Theatre Date : 8 October 2010 (USA)
    IMDB User Ratings: 6.1/10
    Genre : Drama/Thriller
    IMDB Link : http://www.imdb.com/title/tt1423995/
    VIDEO:-
    Format : Audio Video Interleav
    Bitrate : 791 kbps
    Codec ID : xvid
    Resolution : 640 x 256
    Aspect Ratio : 2.500
    Frame Rate : 23.976 fps
    Quality Frame : 0.201
    --------------------------------------
    Audio:-
    Codec ID : MP3
    Bitrate : 128 kbps
    Channel(s) : 2
    Sample Rate : 48.0 KHz
    --------------------------------------
    Encoder : SaM
    File Size : 703 MiB
    Duration : 1h45m
    Source : Blu Ray-CBGB
    Release Date : 31-12-2010
    Language : English
    Subtitles : NA
    Sample : Yes
    Cast:-
    Robert De Niro : Jack
    Edward Norton : Stone
    Milla Jovovich : Lucetta
    Frances Conroy : Madylyn

    Plot:-
    A convicted arsonist looks to manipulate a parole officer
    into a plan to secure his parole by placing his beautiful
    wife in the lawman's path.
    Screens:-
    http://img510.imageshack.us/img510/2254/ss1x.png
    http://img8.imageshack.us/img8/9959/ss2te.png
    http://img842.imageshack.us/img842/249/ss3td.png
    http://img225.imageshack.us/img225/3990/ss4un.png
    Trailer:
    http://www.youtube.com/watch?v=KYho06z-_t8&feature=fvw


    Sub: http://subscene.com/Stone/subtitles-85383.aspx

    Black.Swan.2010.DVDSCR.XviD


    BLACK SWAN (2010) DVDSCR XviD - MC8
    Release Name: Black.Swan.(2010).DVDSCR.XviD-MC8
    Release Date: 12/19/10
    Filename: BLCKSWN.SCR-xvid_MC8
    Source: DVDSCR
    Size: 702 MB Sample: MB
    Genre: Drama | Thriller
    Video: 652 x 278 | 802 kbps | 23.976 fps | DAR: 2.345
    Audio: ENG | MP3 | VBR 112 kbps
    Subtitles: N/A
    Runtime: 01:47:26
    IMDB Rating: 8.9/10
    RT Critics: 8.2/10 ( 184 reviews)
    Directed By: Darren Aronofsky
    Starring: Natalie Portman, Mila Kunis and Vincent Cassel
    A thriller that zeros in on the relationship between a veteran ballet dancer and a rival.
    IMDB: http://www.imdb.com/title/tt0947798/
    Screenshots:
    http://leetleech.org/images/07176888458866601884.png
    http://leetleech.org/images/53305890611478682673.png

    Chôn sống - Buried 2010


    Buried 2010 720p BRRip x264 AAC-BeLLBoY (Kingdom-Release)
    Storyline: Paul is a U.S. contractor working in Iraq. After an attack by a group of Iraqis he wakes to find he is buried alive inside a coffin. With only a lighter and a cell phone it's a race against time to escape this claustrophobic death trap.
    Directed by: Rodrigo Cortés

    Cast:
    Ryan Reynolds ................. Paul Conroy
    José Luis García Pérez ........ Jabir (voice)
    Robert Paterson ............... Dan Brenner (voice)
    Stephen Tobolowsky ............ Alan Davenport (voice)
    Samantha Mathis ............... Linda Conroy (voice)

    Genre: Drama | Mystery | Thriller
    Language: English
    Subtitles: Arabic, Bulgarian, Croatian, Dutch, English, Farsi-Persian, Hungarian, Indonesian, Portuguese-BR, Portuguese-PT, Romanian, Serbian, Spanish, and Turkish.
    Total Size: 1.70 GB + sample
    Duration: 95 minutes
    Source: 1080p BluRay x264 DTS-HDChina
    Encoder: room101bellboy aka farenheit

    Video Specs
    Container and codec: MP4 | H.264/MPEG-4 AVC
    Frontend and writing library: meGUI | x264 core 98 r1649 c54c47d
    Bit rate: 2200 kbps
    Maximum Bit rate: 25.0 Mbps
    Encoding: 2 Pass | [email protected]
    Resolution: 1280 x 544 pixels
    Display Aspect Ratio: 2.35:1
    Quality Factor (QF): 0.132
    Frame Rate: 23.976 fps

    Audio Specs
    Audio Codec and type: Advanced Audio Codec (AAC) | MPEG-4 (mp4a)
    Writing application: Nero AAC codec | 1.5.1.0
    Bitrate mode: Adaptative
    Bitrate: 352 Kbps
    Maximum bitrate: 451 Kbps
    Sample Rate: 48.0 KHz
    Channel Count: 6 channels; Front: L C R, Side: L R, LFE

    IMDb: http://www.imdb.com/title/tt1462758/
    IMDb rating: 7.6/10 (8,733 votes)

    Sub Việt:
    http://subscene.com/vietnamese/Burie...le-397048.aspx

    Kẻ cắp giấc mơ - Inception 2010


    Movie Information:
    Release Title: Inception 2010 BRRip
    Release Date: 16 July 2010 (UK)
    Certification: Rated PG-13
    Storyline: Dom Cobb is a skilled thief, the absolute best in the dangerous art of extraction, stealing valuable secrets from deep within the subconscious during the dream state, when the mind is at its most vulnerable. Cobb's rare ability has made him a coveted player in this treacherous new world of corporate espionage, but it has also made him an international fugitive and cost him everything he has ever loved. Now Cobb is being offered a chance at redemption. One last job could give him his life back but only if he can accomplish the impossible-inception. Instead of the perfect heist, Cobb and his team of specialists have to pull off the reverse: their task is not to steal an idea but to plant one. If they succeed, it could be the perfect crime. But no amount of careful planning or expertise can prepare the team for the dangerous enemy that seems to predict their every move. An enemy that only Cobb could have seen coming.
    Genre: Action | Mystery | Sci-Fi | Thriller
    Language: English

    Cast:
    Leonardo DiCaprio ... Cobb
    Joseph Gordon-Levitt ... Arthur
    Ellen Page ... Ariadne
    Tom Hardy ... Eames
    Ken Watanabe ... Saito
    Dileep Rao ... Yusuf
    Cillian Murphy ... Robert Fischer
    Tom Berenger ... Peter Browning
    Marion Cotillard ... Mal
    Pete Postlethwaite ... Maurice Fischer
    Michael Caine ... Miles
    Lukas Haas ... Nash
    Tai-Li Lee ... Tadashi
    Claire Geare ... Phillipa (3 years)
    Magnus Nolan ... James (20 months)

    Video Specifications:
    Film Length: 2:28:08
    Format: H.264/MPEG-4 AVC
    Bitrate: 1567 kbps
    Framerate: 23.976 FPS
    Encoder: x264
    Resolution: 720 x 304
    Aspect Ratio: 2.35:1
    Advanced Encoding: 2-Pass Encoding
    Quality Factor QF: 0.299

    screens
    http://pic.phyrefile.com/m/ma/masta/..._18.51.15_.png
    http://pic.phyrefile.com/m/ma/masta/..._18.52.48_.png
    http://pic.phyrefile.com/m/ma/masta/..._18.54.10_.png

    Audio Specifications:
    Format: AAC-LC
    Bitrate: AAC = 128 kbps / AAC 5.1 = 300 kbps
    Channels: AAC-LC= 2 / AAC 5.1 = 6 channels
    Sample Rate: 48000Hz
    Subtitles: Hardcoded For Non English Parts + English.srt
    Trailer:
    http://www.youtube.com/watch?v=66TuSJo4dZM


    Sub Viet:
    http://subscene.com/vietnamese/Incep...le-384245.aspx

    Jonah Hex 2010 720p BRrip[Dual-Audio][Eng-Hindi]





    Release Title: Jonah Hex 2010 720p BRrip[Dual-Audio][Eng-Hindi]~BONIIN
    Release Date: 18 June 2010 (USA)
    Release Length: 1h 21mn

    Taglines:Revenge Gets Ugly
    Storyline:The U.S. military makes a scarred bounty hunter with warrants
    on his own head an offer he cannot refuse: in exchange for his freedom,
    he must stop a terrorist who is ready to unleash Hell on Earth.

    General INFO:
    Title............................: Jonah Hex 2010 720p BRrip[Dual-Audio][Eng-Hindi]~BONIIN
    Genre............................: Action | Drama | Thriller | Western
    Directer.........................: Jimmy Hayward
    Writer...........................: Mark Neveldine & Brian Taylor
    IMDB.............................: http://www.imdb.com/title/tt1075747/
    year.............................: 18 June 2010 (USA)
    User Rating......................: 4.6/10, 8,069 votes ┬╗
    VIDEO Source.....................: Jonah Hex 2010 1080p Bluray x264-CBGB
    File size........................: 1.58 GB
    Run time.........................: 1h 21mn
    Languages........................: English,Hindi
    Subtittle........................: English
    Ripper...........................: BONIIN[BOW]

    Video
    ID : 1
    Format : AVC
    Format/Info : H264-Advanced Video Codec
    Format profile : [email protected]
    Format settings, CABAC : Yes
    Format settings, ReFrames : 8 frames
    Muxing mode : Container [email protected]
    Codec ID : V_MPEG4/ISO/AVC
    Duration : 1h 21mn
    Nominal bit rate : 2 208 Kbps
    Overall bit rate : 2 782 Kbps
    Width : 1 280 pixels
    Height : 528 pixels
    Display aspect ratio : 2.40:1
    Frame rate : 23.976 fps
    Resolution : 8 bits
    Colorimetry : 4:2:0
    Scan type : Progressive
    Bits/(Pixel*Frame) : 0.136
    Title : Ripper~BONIIN
    Writing library : x264 core 98 r1649 c54c47d
    Encoding settings : cabac=1 / ref=8 / deblock=1:-4:-4
    Encoded date : UTC 2010-11-27 15:17:36
    Writing application : mkvmerge v3.3.0 ('Language') built on Mar 24 2010 14:59:24
    Writing library : libebml v0.8.0 + libmatroska v0.9.0

    Audio #1
    ID : 2
    Format : AAC
    Format/Info : Advanced Audio Codec
    Format version : Version 4
    Format profile : LC
    Format settings, SBR : No
    Codec ID : A_AAC
    Duration : 1h 21mn
    Channel(s) : 6 channels
    Channel positions : Front: L C R, Side: L R, LFE
    Sampling rate : 48.0 KHz
    Title : Ripper~BONIIN
    Language : English

    Audio #2
    ID : 3
    Format : AC-3
    Format/Info : Audio Coding 3
    Codec ID : A_AC3
    Duration : 1h 21mn
    Bit rate mode : Constant
    Bit rate : 256 Kbps
    Channel(s) : 2 channels
    Channel positions : Front: L R
    Sampling rate : 48.0 KHz
    Video delay : 2ms
    Stream size : 149 MiB (9%)
    Title : Ripper~BONIIN
    Language : Hindi

    screen shots:
    http://img844.imageshack.us/img844/6838/914212871.png
    http://img26.imageshack.us/img26/4308/103471031.png
    http://img543.imageshack.us/img543/9...7915495941.png
    http://img43.imageshack.us/img43/797...1681471621.png
    http://img829.imageshack.us/img829/9051/560884671.png
    http://img251.imageshack.us/img251/9...7608984331.png
    http://img585.imageshack.us/img585/8914/321290011.png*


    Shadows in Paradise 2010 720p BRRip x264


    Genre: Action
    Language:English
    http://www.imdb.com/title/tt1212442/
    Source:1080p.BluRay.x264-SWAGGERHD

    Format : Matroska
    File size : 1.62 GiB
    Duration : 1h 25mn
    Overall bit rate : 2 716 Kbps

    Video
    Format settings, CABAC : Yes
    Format settings, ReFrames : 4 frames
    Format settings, GOP : M=1, N=4
    Codec ID : V_MPEG4/ISO/AVC
    Duration : 1h 25mn
    Bit rate : 2 278 Kbps
    Nominal bit rate : 2 400 Kbps
    Width : 1 280 pixels
    Height : 720 pixels
    Display aspect ratio : 16:9
    Frame rate mode : Variable
    Frame rate : 23.976 fps
    Color space : YUV
    Chroma subsampling : 4:2:0
    Bit depth : 8 bits
    Scan type : Progressive
    Bits/(Pixel*Frame) : 0.103
    Stream size : 1.35 GiB (84%)
    Writing library : x264

    Audio
    ID : 2
    Format : AC-3
    Format/Info : Audio Coding 3
    Mode extension : CM (complete main)
    Codec ID : A_AC3
    Duration : 1h 25mn
    Bit rate mode : Constant
    Bit rate : 384 Kbps
    Channel(s) : 6 channels
    Channel positions : Front: L C R, Side: L R, LFE
    Sampling rate : 48.0 KHz
    Bit depth : 16 bits
    Video delay : -1mn 5s
    Stream size : 234 MiB (14%)
    Language : English

    Plot:
    During a rescue operation in Iraq, Special Forces member Max Forrester is devastated when Sasha, his squad mate and fiance goes missing

    http://shareimage.org/images/f6vmeliruim7dixncl.png
    http://shareimage.org/images/nofxr1cyctxvdp9efz2.png
    http://shareimage.org/images/2t5p9e2vnaueam59wvy2.png


    Hài tết 2010 bản đẹp cười rụng rốn luôn...





    Group Sex[2010]DvDrip


    PLOT
    Herman has a weakness for strip clubs. Donny has a thing for condiments and Tiffany is a newly celibate martial artist. These are Andys new friends after he unsuspectingly follows his dream girl into a sexual addiction recovery group.
    LANGUAGE......{ English
    RUNTiME.........{ 1:32:20
    AUDiO...........{ MP3 128Kb/s 48000Hz
    ViDEO............{ XVID 921 Kb/s 23.976FPS
    RESOLUTiON....{ 640 x 352
    DiSPLAY.......{ 1.818
    QUALiTY.......{ 0.171
    SiZE.............{ 701 MB
    SOURCE........{ NTSC DVD
    RELEASE DATE..{ 24/09/2010
    http://img36.imageshack.us/img36/424...010preview.jpg

    Vụ Cướp Thế Kỷ - Takers 2010 BDRip



    PLOT:
    A group of bank robbers find their multi-million dollar plan interrupted
    by a hard-boiled detective.
    MOViE iNFO:
    IMDB___________[ http://www.imdb.com/title/tt1135084/
    IMDB RATiNG_____[ 5.4/10
    GENRE__________[ Action | Crime | Thriller
    MPAA RATiNG____[ PG-13
    DiRECTOR_______[ John Luessenhop
    RELEASE DATE___[ 27 August 2010 (USA)
    AWARDS_________[ 1 win
    ViDEO iNFO:
    RUNTiME________[ 1:47:06
    CODEC__________[ XviD
    BiT RATE_________[ 778 Kbps
    FPS____________[ 23.976 FPS
    RESOLUTiON_____[ 640 x 272
    DiSPLAY_________[ 2.35
    Q*FRAME________[ 0.186
    AUDiO iNFO:
    CODEC__________[ MP3
    BiT RATE_________[ 128 Kbps
    SAMPLiNG RATE__[ 48000Hz
    CHANNELS______[ 2
    SUBTiTLES________[ English
    TOTAL SiZE______[ 701 MB
    Screens:
    http://img530.imageshack.us/img530/3633/shot0001d.png
    http://img692.imageshack.us/img692/9569/shot0004a.png
    http://img34.imageshack.us/img34/7407/shot0002k.png
    http://img51.imageshack.us/img51/4672/shot0003pv.png
    http://img808.imageshack.us/img808/6...riptorrent.png
    Trailer:
    http://www.youtube.com/watch?v=SicGk3-bP58


    Sub Việt:
    http://subscene.com/vietnamese/Taker...le-396299.aspx

    Clash of the Titans [2010] DvDRiP XviD


    Release iNFO
    VIDEO:-
    Format : Audio Video Interleave
    Bitrate : 802 kbps
    Codec ID : XviD
    Resolution : 640 x 272
    Aspect Ratio : 2.35:1
    Frame Rate : 23.976 fps
    Quality Frame : 0.192

    Audio:-
    Codec ID : MP3
    Bitrate : 128 kbps CBR
    Channel(s) : 2
    Sample Rate : 48.0 KHz
    Encoder : SureNdrA
    File Size : 698 MB
    Duration : 1h 44m
    Source : NTSC DVD
    Release Date : 02-11-2010
    Language : English
    Subtitles : NO
    Sample : Yes

    Cast
    Sam Worthington : Perseus
    Liam Neeson : Zeus
    Ralph Fiennes : Hades
    Jason Flemyng : Calibos / Acrisius
    Gemma Arterton : Io

    PLOT
    The mortal son of the god Zeus embarks on a perilous
    journey to stop the underworld and its minions from
    spreading their evil to Earth as well as the heavens.
    SCREENSHOTS
    http://img46.imageshack.us/img46/834...ans2010dvd.jpg

    http://img543.imageshack.us/img543/8...ns2010dvdl.jpg

    http://img263.imageshack.us/img263/8...ans2010dvd.jpg



    Harry Potter And The Deathly Hallows Part 1.2010.TS.XviD 1 link full + Sub Viet





    STORY
    As Harry races against time and evil to destroy the Horcruxes, he uncovers the existence of three most powerful objects in the wizarding world: the Deathly Hallows.

    Source - Source in Turkey
    Length - 2h 08mn
    Video - XviD
    Resolution - 704 x 320/ 25fps
    Audio Language - English
    Audio - MP3 - line

    credit WBZ & to all the people who made it possible for us to share this...especially EVERYONE involve in the production of the movie...IF YOU LIKE IT...BUY IT :)

    SCREENSHOTS
    http://img200.imageshack.us/img200/7171/kzrcqfxj.png
    http://img248.imageshack.us/img248/388/aeyrjk5d.png
    http://img513.imageshack.us/img513/5778/ti0sqyuci.png
    http://img683.imageshack.us/img683/3249/qhc9unbo.png
    http://img690.imageshack.us/img690/1700/gntromf6.png
    http://img816.imageshack.us/img816/3365/2ov4itoq.png
    http://img403.imageshack.us/img403/4743/mlc5qikx.png
    http://img267.imageshack.us/img267/5877/ffqhur13.png
    http://img51.imageshack.us/img51/2466/hsjlw1tp.png
    Trailer:
    http://www.youtube.com/watch?v=_EC2tmFVNNE


    Sub Viet: http://subscene.com/Harry-Potter-and...les-85130.aspx

    Dowload:
    clik link dow -> click "Regular download" -> click "Download on slow speed" -> Doi dem nguoc ve 0 "Wait for Your turn" -> click "Link to the file download" ---> ok!

    Clash of the Titans (2010) BRRip H264




    Storyline:
    The mortal son of the god Zeus embarks on a perilous journey to stop the underworld and its minions from spreading their evil to Earth as well as the heavens.

    Cast:
    Sam Worthington ... Perseus
    Liam Neeson ... Zeus
    Ralph Fiennes ... Hades
    Jason Flemyng ... Calibos / Acrisius
    Gemma Arterton ... Io
    Alexa Davalos ... Andromeda
    Tine Stapelfeldt ... Danae
    Mads Mikkelsen ... Draco
    Luke Evans ... Apollo
    Izabella Miko ... Athena
    Liam Cunningham ... Solon
    Hans Matheson ... Ixas
    Ashraf Barhom ... Ozal
    Mouloud Achour ... Kucuk
    Ian Whyte ... Sheikh Sulieman

    Genre:
    Action | Adventure | Drama | Fantasy
    Rating:
    Rated PG-13 for fantasy action violence, some frightening images and brief sensuality.

    IMDB:
    http://www.imdb.com/title/tt0800320/

    Basic Information:
    Film Length: 1h:46m
    Size of MP4 file: 1.80 GB
    Language: English
    Encoded By: SyKoTiK
    Original Source: Clash of the Titans 1080p BRRip by CBGB

    Video Information:
    Format: H.264/MPEG-4 AVC
    Video Bitrate: 1912 Kbps
    Framerate: 23.976 fps
    Display Aspect Ratio: 2.4:1
    Quality Factor (QF): 0.118
    Encoder: x264 ([email protected])
    Resolution: 1280x528

    Audio Information:
    Format: MPEG-4 AAC LC
    Audio #1: 384kb/s 48000 Hz 6-channel
    Audio #2: 128kb/s 48000 Hz 2-channel

    Subtitles Information:
    Subtitles: English Included (Muxed into the MP4 File)

    Release Notes:
    All of our releases have 2-channel audio (and 6-channel audio when available). For playback on the XBOX 360, please follow the DeMuxing/Downmixing tutorial included in this download to remove the 6-channel audio. Alternatively, you can burn our releases to disc with ConvertXtoDVD (or other burning software). We hope you enjoy this release. Please seed, and we thank you for your support.

    Screenshots

    http://postimg.com/image/18000/17676.jpg

    http://postimg.com/image/18000/17677.jpg

    Sub Viet:
    http://subscene.com/vietnamese/Clash...le-359362.aspx


    Piranha 2010 BRRip 720p H264 AAC


    Cast
    Richard Dreyfuss ... Matt Boyd
    Ving Rhames ... Deputy Fallon
    Elisabeth Shue ... Sheriff Julie Forester
    Christopher Lloyd ... Mr. Goodman
    Eli Roth ... Wet T-Shirt Host
    Jerry O'Connell ... Derrick Jones
    Cody Longo ... Todd Dupree
    Steven R. McQueen ... Jake Forester
    Jessica Szohr ... Kelly
    Kelly Brook ... Danni
    Riley Steele ... Crystal
    Adam Scott ... Novak
    Ricardo Chavira ... Sam
    Dina Meyer ... Paula
    Paul Scheer ... Andrew

    Genre Comedy | Horror | Thriller
    Language English
    Total Size 1.55 GB
    Source 1080p
    Encoder BeBO0o

    Video Specs
    Container: MP4
    Video Codec Type: x264/H264
    Video Codec name: AVC MPEG-4
    Avg. Bitrate: 2055 Kbps
    Encoding: 2 Pass
    Resolution: 1280 x 534
    Display Aspect Ratio: 2.39:1
    Quality Factor (QF): 0.125
    Frame Rate: 23.976 Fps

    Audio Specs
    Audio Codec: AAC
    Bitrate: 460 Kbps
    Sample Rate: 48.0 KHz
    Channel Count: 6

    IMDB
    http://www.imdb.com/title/tt0464154/
    We are looking for some new sources cams,direct audio,dvd or vhs screeners, Dedicated Servers, TV Cappers, syncers or any thing else you can provide Contact us @ sources[email protected]
    Greets: KingBen, BLaZE, KK, paulx1, DiNGiE, jojo - All of Kingdom & UKB, STG, IMAGiNE, The GRiM, Ho's, and all else We Respect, you know who yall are ;)
    Screens:-
    http://img839.imageshack.us/img839/8141/96110741.jpg
    http://img156.imageshack.us/img156/9095/80708139.jpg
    http://img814.imageshack.us/img814/8133/20963456.jpg
    http://img135.imageshack.us/img135/7481/19699014.jpg


    Everymans War 2009 BRRip 720p x264


    Format : Matroska
    File size : 1.98 GiB
    Duration : 1h 44mn
    Overall bit rate : 2 704 Kbps

    Video
    Format settings, CABAC : Yes
    Format settings, ReFrames : 4 frames
    Codec ID : V_MPEG4/ISO/AVC
    Duration : 1h 44mn
    Bit rate : 2 266 Kbps
    Nominal bit rate : 2 398 Kbps
    Width : 1 280 pixels
    Height : 570 pixels
    Display aspect ratio : 2.25:1
    Frame rate mode : Variable
    Frame rate : 23.976 fps
    Color space : YUV
    Chroma subsampling : 4:2:0
    Bit depth : 8 bits
    Scan type : Progressive
    Bits/(Pixel*Frame) : 0.130
    Stream size : 1.66 GiB (84%)
    Writing library : x264

    Audio
    ID : 2
    Format : AC-3
    Format/Info : Audio Coding 3
    Mode extension : CM (complete main)
    Codec ID : A_AC3
    Duration : 1h 44mn
    Bit rate mode : Constant
    Bit rate : 384 Kbps
    Channel(s) : 6 channels
    Channel positions : Front: L C R, Side: L R, LFE
    Sampling rate : 48.0 KHz
    Bit depth : 16 bits
    Video delay : -1mn 5s
    Stream size : 288 MiB (14%)
    Language : English
    Plot:
    The true story of Don Smith's heroic experience at the Battle of the Bulge while with the 94th Infantry
    http://shareimage.org/images/kt5wttg68jgfmdu5fah3.png
    http://shareimage.org/images/5dktq7dul9ne7h1jnj5.png
    http://shareimage.org/images/auq6iv901ipn8jpri0jm.png
    http://shareimage.org/images/t5pix1fupk6ebudxv.png


    Monsters 2010 BRRip 720P


    IMDB:
    http://www.imdb.com/title/tt1470827/

    Screens:
    http://img228.imageshack.us/img228/2337/ss6z.png
    http://img716.imageshack.us/img716/1131/ss3xn.png

    Sub Việt:
    http://subscene.com/vietnamese/Monst...le-397300.aspx


    Buried 2010 480p BDRip XviD AC3


    [ RELEASE INFORMATION ]
    VIDEO.......: 1720 Kbps ENCODER.....: oZi
    AUDIO.......: AC3 5.1 [448 Kbps] SIZE........: 1.45 GB
    FRAMERATE...: 23.976 NTSC FILES.......: 1 x AVi
    SOURCE......: BDiSC RESOLUTION..: 720x304
    LANGUAGE....: English SUBTITLES...: None
    [ MOVIE INFORMATION ]
    Genre.......: Mystery | Thriller iMDB RATING.: 7.6/10
    Runtime.....: 95 mins RT RATING...: 8.6/10
    Screenshots:
    http://www.leetleech.org/images/5341...3277303314.png
    http://www.leetleech.org/images/4082...7625183327.png


    Game of Death 2010 DVDSCr XviD



    Game of Death (2010) DVDSCR XviD-NYDIC
    AVI | English | 1h 22min | 720x304
    XviD - 1062kbps | MP3 - 128kbps | 707 MB
    Genre: Action | Adventure
    IMDB Info
    Secret Ops agent Marcus is sent to Detroit to take out an arms dealer and the head of the hedge fund that is
    financing him. His CIA backup has other plans and turns on him and it's a fight to survive in a hospital

    ScreenCaps:
    http://img219.imageshack.us/img219/3...10dvdscrxv.jpg
    Trailer:
    http://www.youtube.com/watch?v=vsQAlUqr6EI


    Sub Viet:
    http://subscene.com/Game-of-Death/subtitles-85875.aspx

    Abandoned [2010] DvDRiP XviD


    Theatre Date : 24/August/2010 (USA)
    IMDB User Ratings: 5.0/10
    Genre : Drama | Mystery | Thriller
    IMDB Link : http://www.imdb.com/title/tt1470171/
    Release iNFO
    VIDEO:-
    Format : Audio Video Interleave
    Bitrate : 977 kbps
    Codec ID : XviD
    Resolution : 640 x 324
    Aspect Ratio : 1.975
    Frame Rate : 23.976 fps
    Quality Frame : 0.197
    -----------------------------
    Audio:-
    Codec ID : MP3
    Bitrate : 128 kbps CBR
    Channel(s) : 2
    Sample Rate : 48.0 KHz

    Encoder : SureNdrA
    File Size : 698 MB
    Duration : 1h 28m
    Source : NTSC DVD
    Release Date : 12-01-2011
    Language : English
    Subtitles : English
    Sample : Yes
    Cast
    Brittany Murphy : Mary Walsh
    Dean Cain : Kevin Peterson
    Mimi Rogers : Victoria Markham
    Peter Bogdanovich : Dr. Markus Bensley
    Jay Pickett : Detective Franklin

    PLOT
    Mary Walsh delivers boyfriend Kevin to a hospital for
    routine outpatient surgery. But when Mary returns to
    take him home,he's mysteriously vanished.

    ScreenS
    http://img607.imageshack.us/img607/5...dvdripxvid.jpg
    http://img703.imageshack.us/img703/7...vdripxvids.jpg
    http://img641.imageshack.us/img641/5...dvdripxvid.jpg
    http://img703.imageshack.us/img703/5...dvdripxvid.jpg


    And Soon The Darkness 2010 [DVDRip.XviD-miguel] [ENG]


    Country.......: USA, Arqentina, France
    Genre.........: Thriller, Horror
    Date release..: 28.02.2010 [World]
    Director......: Marcos Efron
    Writers.......: Jennifer Derwingson, Marcos Efron
    Duration......: 91 min.
    More..........: http://www.imdb.com/title/tt1391034
    Trailer.......: http://www.imdb.com/video/imdb/vi2266011929
    Trailer.......:

    Pilot :
    When two American girls on a bike trip in a remote part of Argentina split up and one of them goes missing, the other must find her before her worst fears are realized.

    Cats :
    Amber Heard ... Stephanie
    Odette Yustman ... Ellie
    Karl Urban ... Michael
    Gia Mantegna ... Camila
    Adriana Barraza ... Rosamaria
    Cesar Vianco ... Calvo
    Michel Noher ... Chucho
    Luis Sabatini ... Luca
    Javier Luna ... Bar Owner
    Andrea Verdun ... Waitress
    Maria Salome Cari ... Cleaning Woman
    Matias Paz Conde ... Skinny Guy
    Hugo Miranda ... Man
    Esteban Pastrana ... Barman
    Jorge Booth ... Hernan

    Data Technical :
    !!! SAMPLE !!!
    Audio.....: English
    Subtitles.: English .str, Spanish .str, Romanian .str, Greece .str, Czech .str, Bulgarian .str, Polish .txt
    Video.....: XviD 640x272 23.98fps [Video]
    Audio.....: MPEG Audio Layer 3 48000Hz stereo 127kbps [Audio]

    Screen :
    http://img51.imageshack.us/img51/980...kness2010s.jpg
    http://img441.imageshack.us/img441/9...kness2010s.jpg
    http://img140.imageshack.us/img140/9...kness2010s.jpg
    http://img233.imageshack.us/img233/9...kness2010s.jpg


    Ultramarines 2010.DVDRip.XviD.AC3


    Genre - Animation | Sci-Fi
    Year- 2010
    IMDb Link - http://www.imdb.com/title/tt1679332/
    Source - DVD
    Size - 1.35 GB
    Length - 1h 16mn
    Video - XviD
    Resolution - 720 x 400/ 23.976 fps
    Audio Language - English
    Audio - AC3 / 6CH/ 448 Kbps
    Subs - N/A

    Terence Stamp ... Severus (voice)
    John Hurt ... Carnak
    Sean Pertwee ... Proteus (voice)
    Steven Waddington ... Verenor (voice)
    Donald Sumpter ... Pythol (voice)
    Johnny Harris ... Nidon (voice)
    Ben Bishop ... Crastor (voice)
    Christopher Finney ... Boreas (voice)
    Gary Martin ... Hypax (voice)

    A squad of Ultramarines answer a distress call from an Imperial Shrine World. A full Company of Imperial Fists was stationed there, but there is no answer from them. The squad investigates to find out what has happened there.

    http://shareimage.ro/images/2y28p8galtlnofm5qoqz.png
    http://shareimage.ro/images/kb6nra2m78h2mb3jkq6.png
    http://shareimage.ro/images/60ysl32y2bg9248tmjcf.png
    http://shareimage.ro/images/dld1otj1o05kplibg5hs.png
    http://shareimage.ro/images/klbaqnrvbu0b62pjusch.png


    Tomorrow When The War Began 2010 DvDRip H264 TIEP


    Genre:Action | Adventure | Drama
    Language:English
    IMDb:http://www.imdb.com/title/tt1456941/
    Format : MPEG-4
    File size : 790 MiB
    Duration : 1h 39mn
    Overall bit rate : 1 109 Kbps
    Video
    Bit rate : 943 Kbps
    Width : 720 pixels
    Height : 304 pixels
    Frame rate : 23.976 fps
    Audio
    Format : AAC
    Bit rate : 160 Kbps
    Channel(s) : 2 channels

    Death Race 2 2010 DVDRip

    Death Race 2 DVDRip
    -------------------------------------------
    Release Name.........: Death Race 2 DVDRip [CyberPiraten]
    Release Description..: An origin story for convicted cop killer Frankenstein
    Release Date.........: 23th December, 2010
    Release By...........: P2P
    Genre..........: Action | Sci-Fi | Thriller
    Video..........: XviD | 720�—400 | 4456 Kbps
    Audio..........: English | AC3 | 6 Channels | 384 Kbps
    Directed By....: Joseph Kosinski
    Starring.......: Jeff Bridges | Garrett Hedlund | Olivia Wilde
    Trailer........: www.imdb.com/video/imdb/vi2099747097/

    Nude Nuns with Big Guns.2010.DVDRip.XviD


    Genre - Thriller
    Year- 2010
    IMDb Link - http://www.imdb.com/title/tt1352388/
    Size - 719 mb
    Length - 1h 22mn
    Video - XviD
    Resolution - 640 x 352/ 25.00 fps
    Audio Language - English
    Audio - AC3 / 192 Kbps
    PLOT:
    Upon taking her vows to become a nun, Sister Sarah is abused, brainwashed and drugged into submission by the corrupt clergy. On the verge of death from a lethal dose of drugs, Sister Sarah receives a message from GOD telling her to take vengeance on all those who did her wrong. Armed with God's will and an arsenal of big guns, she dispenses Judgment Day on her former tormentors. When the church hires the merciless motorcycle gang the "Los Muertos" to track down and kill her they soon realize that this SISTER IS ONE BAD MOTHER.
    Screenshots:
    http://shareimage.ro/images/0yuwfjsxwvl5rvnqv5kq.png
    http://shareimage.ro/images/e2ottfuvyskyb9osun.png
    http://shareimage.ro/images/5v3zxujqjwz79cu2o9m.png


    Alpha And Omega 2010 DVDRip XviD


    THEATRE DATE : 09/17/10 (USA) 2,625, (UK) 391
    STORE DATE : 01/14/10
    GENRE : Animation | Adventure
    RUNTiME : 1 hour 27 minutes
    RATiNG : 4.1/10
    ViDEO : 960 kbps
    AUDiO : 141 kbps 2ch. MP3
    RESOLUTiON : 624x352 1.77:1
    DiSCS : 1
    SUBS : Eng | Spa
    ScreenCaps:
    http://leetleech.org/images/03613997326587893174.jpg


    Red.2010.DvdSCR.Xvid


    Here is my rate: (Out of 10)
    Audio= 9
    Video= 10
    Movie= 9
    good movie and good download
    Screen:
    http://leetleech.org/images/24139796601574794870.png
    http://leetleech.org/images/23423114471111392841.png
    http://leetleech.org/images/17197330416139591823.png
    http://leetleech.org/images/42123268507145208430.png
    http://leetleech.org/images/07471436946989012426.png



    Easy A[2010]DvDrip


    TiTLE.........[ Easy A
    YEAR..........[ 2010
    GENRE.........[ Comedy | Romance
    RUNTiME.......[ 1:32:25
    iMDB RATE.....[ 7.3/10 (14,016 votes)
    FXG RATE......[ 6.9/10 (2 votes)
    iMDB URL......[ http://www.imdb.com/title/tt1282140/
    AUDiO.........[ MP3 48000Hz 128 kb/s CBR (2 chnls)
    LANGUAGE......[ English
    ViDEO.........[ 920 kbps XviD 23.976 FPS
    RESOLUTiON....[ 616 x 320
    DAR...........[ 1.925 (~23:12)
    QUALiTY FRAME.[ 0.195
    SUBS..........[ English
    SiZE..........[ 699 MB
    SOURCE........[ NTSC DVD
    RiP...........[ #465
    RELEASE DATE..[ 13/12/2010

    Phù thủy tập sự - The Sorcerers Apprentice (2010) DVDRip XviD


    Format : AVI
    Format/Info : Audio Video Interleave
    Format profile : OpenDML
    File size : 1.31 GiB
    Duration : 1h 49mn
    Overall bit rate : 1 722 Kbps
    Writing application : VirtualDubMod 1.5.10.2 (build 2542/release)
    Writing library : VirtualDubMod build 2542/release
    Original source form : MAX TORRENTZ
    Copyright : SIGISMUNT

    Video
    ID : 0
    Format : MPEG-4 Visual
    Format profile : [email protected]
    Format settings, BVOP : Yes
    Format settings, QPel : No
    Format settings, GMC : No warppoints
    Format settings, Matrix : Custom
    Codec ID : XVID
    Codec ID/Hint : XviD
    Duration : 1h 49mn
    Bit rate : 1 527 Kbps
    Width : 720 pixels
    Height : 304 pixels
    Display aspect ratio : 2.35:1
    Frame rate : 23.976 fps
    Resolution : 24 bits
    Colorimetry : 4:2:0
    Scan type : Progressive
    Bits/(Pixel*Frame) : 0.291
    Stream size : 1.16 GiB (89%)
    Writing library : XviD 1.2.1 (UTC 2008-12-04)

    Audio
    ID : 1
    Format : MPEG Audio
    Format version : Version 1
    Format profile : Layer 3
    Codec ID : 55
    Codec ID/Hint : MP3
    Duration : 1h 49mn
    Bit rate mode : Constant
    Bit rate : 192 Kbps
    Channel(s) : 2 channels
    Sampling rate : 48.0 KHz
    Resolution : 16 bits
    Stream size : 150 MiB (11%)
    Alignment : Aligned on interleaves
    Interleave, duration : 522 ms (12.51 video frames)
    Interleave, preload duration : 216 ms
    Writing library : LAME3.98.2

    Screens:
    http://www.postimg.com/image/24000/23913.jpg
    http://www.postimg.com/image/24000/23914.jpg
    http://www.postimg.com/image/24000/23915.jpg
    http://www.postimg.com/image/24000/23916.jpg

    ScreenCaps:
    http://www.postimg.com/image/24000/23918.jpg

    Trọn bộ Iron Man (2008 + 2010) BRRiP.720p


    + Iron Man (2008)
    General
    Format: MPEG-4
    File size: 720 MB
    Release Duration: 2h 06mn 01sec
    Overall bit rate: 800 Kbps
    Video
    Bit rate: 748 Kbps
    Width: 1280 pixels
    Audio
    Bit rate: 48 Kbps
    Sample Rate: 44100 Hz
    SCREENS
    http://img577.imageshack.us/img577/7...1310h41m47.png
    http://img688.imageshack.us/img688/2...1310h42m54.png
    http://img263.imageshack.us/img263/8...1310h47m19.png
    http://img707.imageshack.us/img707/4...1310h48m15.png

    + Iron Man 2 (2010)
    File size : 728 MiB
    Duration : 2h 4mn
    Overall bit rate : 816 Kbps
    Video
    Bit rate : 765 Kbps
    Width : 1 280 pixels
    Height : 544 pixels
    Audio
    Bit rate : 48.0 Kbps
    SCREENSHOTS:
    http://img819.imageshack.us/img819/3...rrip720px2.jpg

    Sub Viet:
    http://letitbit.net/download/47680.4..._2010.rar.html


    Machete 2010 dvdrip


    TiTLE.........[ Machete
    YEAR..........[ 2010
    GENRE.........[ Action | Comedy | Crime
    RUNTiME.......[ 1:44:58
    iMDB RATE.....[ 7.3/10 (35,348 votes)
    FXG RATE......[ 7.2/10 (2 votes)
    iMDB URL......[ http://www.imdb.com/title/tt0985694/

    AUDiO.........[ MP3 48000Hz 128 kb/s CBR (2 chnls)
    LANGUAGE......[ English
    ViDEO.........[ 795 kbps XviD 23.976 FPS
    RESOLUTiON....[ 600 x 320
    DAR...........[ 1.875 (15:8)
    QUALiTY FRAME.[ 0.173
    SUBS..........[ English
    SiZE..........[ 700 MB
    SOURCE........[ NTSC DVD

    RiP...........[ #477
    RELEASE DATE..[ 30/12/2010
    PLOT SUMMARY
    After being betrayed by the organization who hired him, an ex-Federale launches a brutal rampage of revenge against his former boss.

    ScreenCaps:
    http://img525.imageshack.us/img525/4...dripengfxg.jpg


    Get Him to the Greek[2010]DvDrip


    A record company intern is hired to accompany out-of-control British rock star Aldous Snow to a concert at L.A.'s Greek Theater.

    IMDB...............{ http://www.imdb.com/title/tt1226229/
    IMDB RATiNG......{ 7.0/10
    GENRE...........{ Comedy
    LANGUAGE......{ English
    SUBTiTLES......{ English
    RUNTiME.........{ 1:53:52
    AUDiO............{ MP3 128Kb/s 48000Hz
    ViDEO.............{ XVID 723 Kb/s 23.976FPS
    RESOLUTiON....{ 640 x 336
    DiSPLAY.........{ 1.905
    QUALiTY.........{ 0.140
    SiZE..............{ 701 MB
    SOURCE.........{ NTSC DVD
    RiP...............{ #108
    RELEASE DATE..{ 26/09/2010

    How to Train Your Dragon[2010]DvDrip[Eng]


    TiTLE.........[ How to Train Your Dragon
    YEAR..........[ 2010
    GENRE.........[ Animation | Adventure | Comedy | Family | Fantasy

    RUNTiME.......[ 1:37:52
    iMDB RATE.....[ 8.2/10 (29,232 votes)
    FXG RATE......[ 9.0/10 (2 votes)
    iMDB URL......[ http://www.imdb.com/title/tt0892769/

    AUDiO.........[ MP3 48000Hz 128 kb/s CBR (2 chnls)
    LANGUAGE......[ English
    ViDEO.........[ 861 kbps XviD 23.976 FPS
    RESOLUTiON....[ 696 x 288
    DAR...........[ 2.417 (29:12)
    QUALiTY FRAME.[ 0.179
    SUBS..........[ English
    SiZE..........[ 698 MB
    SOURCE........[ NTSC DVD

    RiP...........[ #421
    RELEASE DATE..[ 03/10/2010

    PLOT SUMMARY
    A hapless young Viking who aspires to hunt dragons becomes the unlikely friend of a young dragon himself, and learns there may be more to the creatures than he assumed.


    The.Town.Extended.2010.BRRiP.720p.x264


    General
    Format : MPEG-4
    Format profile : Base Media
    Codec ID : isom
    File size : 700 MiB
    Duration : 2h 30mn
    Overall bit rate : 650 Kbps

    Video
    ID : 1
    Format : AVC
    Format/Info : Advanced Video Codec
    Format profile : [email protected]
    Format settings, CABAC : Yes
    Format settings, ReFrames : 8 frames
    Codec ID : avc1
    Codec ID/Info : Advanced Video Coding
    Duration : 2h 30mn
    Bit rate mode : Variable
    Bit rate : 599 Kbps
    Maximum bit rate : 4 731 Kbps
    Width : 1 280 pixels
    Height : 528 pixels
    Display aspect ratio : 2.40:1
    Frame rate mode : Constant
    Frame rate : 23.976 fps
    Color space : YUV
    Chroma subsampling : 4:2:0
    Bit depth : 8 bits
    Scan type : Progressive
    Bits/(Pixel*Frame) : 0.037

    Audio
    ID : 2
    Format : AAC
    Format/Info : Advanced Audio Codec
    Format version : Version 4
    Format profile : LC
    Format settings, SBR : Yes
    Format settings, PS : Yes
    Codec ID : 40
    Duration : 2h 30mn
    Bit rate mode : Variable
    Bit rate : 48.0 Kbps
    Maximum bit rate : 55.0 Kbps
    Channel(s) : 2 channels
    Channel positions : Front: L R
    Sampling rate : 44.1 KHz

    Die[2010]DVDRip XviD


    Theatre Date : 2010(Canada)
    IMDB User Ratings: NA
    Genre : Thriller
    IMDB Link : http://www.imdb.com/title/tt1465478/

    VIDEO:-
    Format : Audio Video Interleave
    Bitrate : 976
    Codec ID : XviD
    Resolution : 640 X 272
    Aspect Ratio : 2.35:1
    Frame Rate : 25.000 fps
    Quality Frame : 0.224

    Audio:-
    Codec ID : MP3
    Bitrate : 128 kbps
    Channel(s) : 2
    Sample Rate : 44.1 KHZ
    Encoder : SaM
    File Size : 699
    Duration : 01h27m
    Source : DVD PAL
    Release Date : 13-01-2011
    Language : English
    Subtitles : Norwegian/Swedish/Finnish/Danish
    Sample : Yes

    Plot:-
    Six people,each of them is on the road to self-destruc-
    tion.They wake up in cells in a surreal facility,without
    knowing how they got there or why.

    Screens:-
    http://img64.imageshack.us/img64/2369/ss1ya.png
    http://img222.imageshack.us/img222/522/ss2o.png
    http://img87.imageshack.us/img87/64/ss3e.png
    http://img257.imageshack.us/img257/6660/ss4i.png
    http://img522.imageshack.us/img522/2769/ss5es.png



    127.Hours.2010.DVDSCR.AC3.XViD


    STORY
    A mountain climber becomes trapped under a boulder while canyoneering alone near Moab, Utah and resorts to desperate measures in order to survive.
    this is a good movie
    A 10
    V 10
    M 8
    SCREENSHOTS
    http://www.leetleech.org/images/8992...2725959680.png
    http://www.leetleech.org/images/2083...1516885904.png
    http://www.leetleech.org/images/5990...3029819777.png
    http://www.leetleech.org/images/8617...4549470975.png
    http://www.leetleech.org/images/8548...2362476602.png


    Outcast.2010.DVDRIP.XviD


    INFO:
    File Size: 730 MiB
    Width: 640 pixels
    Height: 352 pixels
    Duration: 1:33:46
    Video
    Sub type: XVID
    FourCC: XVID (XVID MPEG-4)
    Bit planes: 12
    Dimensions: 640x352
    AvgTimePerFrame: 400000
    FPS: 25,00
    Audio
    Sub type: MPEG-1 Layer 3 (MP3)
    Channels: 2
    Audio tag: MPEG-1 Layer 3 (MP3)
    Frequence: 48000 Hz
    http://www.imdb.com/title/tt1396219/

    PILOT
    It tells the tale of Petronella (a Scottish/Romany girl) and Fergal
    (her mysterious Irish traveller boyfriend). As their doomed relationship plays
    out, a Beast stalks the estate, killing locals, working its way towards our
    protagonists. Meanwhile Cathal and Liam, two mysterious travellers from Ireland
    use ritual and magic on a blood hunt. Mary, Fergal's mother performs ritual and
    magic of her own. As Cathal comes face to face with Mary in a vicious finale we
    know one thing: the Beast must die.

    CAST
    Therese Bradley ... Jitta
    Niall Bruton ... Fergal
    Claire Catterson ... Susan
    James Cosmo ... Laird
    Kate Dickie ... Mary

    SCREENS:
    http://www.leetleech.org/images/7809...5094203336.png
    http://www.leetleech.org/images/5520...2535581907.png
    http://www.leetleech.org/images/6811...1335070123.png
    http://www.leetleech.org/images/8436...1216137301.png


    Freakonomics.2010.DVDRip


    -[Freakonomics.2010.DVDRip.XviD-TASTE]-
    [ NAME ] Freaknomics [ RELEASED ] 12/01/2011
    [ YEAR ] 2010 [ STORE DATE ] 03/01/2011

    [ ViDEO ] XviD @ 827 kbps [ AUDiO ] AC3 256kbps
    [ RESOLUTiON ] 640x352 [ FRAME RATE ] 25 fps

    [ RUNTiME ] 1h 29m 27s [ RAR SiZE ] 700MB 50x15MB

    [ GENRE ] Documentary
    [ RATiNG ] 6.0/10 (245 votes)

    [ LiNK ] http://www.imdb.com/title/tt1152822/


    Gunless [2010] DvDRiP XviD


    Release iNFO
    VIDEO:-
    Format : Audio Video Interleave
    Bitrate : 966 kbps
    Codec ID : XviD
    Resolution : 640 x 272
    Aspect Ratio : 2.35
    Frame Rate : 23.976 fps
    Quality Frame : 0.231

    Audio:-
    Codec ID : MP3
    Bitrate : 128 kbps CBR
    Channel(s) : 2
    Sample Rate : 48.0 KHz
    Encoder : SureNdrA
    File Size : 699 MB
    Duration : 1h 29m
    Source : NTSC DVD
    Release Date : 10-01-2011
    Language : English
    Subtitles : English
    Sample : Yes
    PLOT
    A hardened American gunslinger is repeatedly thwarted in
    his attempts to mount a showdown in a friendly town in
    Canada where no one seems to understand or appreciate the
    brutal code of the American Wild West.

    ScreenS
    http://img18.imageshack.us/img18/647...dripxvidex.jpg
    http://img221.imageshack.us/img221/6...dripxvidex.jpg
    http://img97.imageshack.us/img97/647...dripxvidex.jpg
    http://img534.imageshack.us/img534/6...dripxvidex.jpg


    Going The Distance DVDRip XviD



    A DiAMOND LASTS FOREVER

    P R O U D L Y P R E S E N T i N G: Going.The.Distance.DVDRip.XviD-DiAMOND
    THEATRE DATE: 09/03/10 3030
    RELEASE DATE: 11/12/10
    STORE DATE: 10/09/10
    GENRE: Comedy | Romance
    RUNTiME: 1 hour 42 minutes
    RATiNG: 6.4/10 (2,993 votes)
    ViDEO: 774 kbps
    AUDiO: 163 kbps 2ch. MP3
    RESOLUTiON: 640x272 2.35:1
    # DiSCS: 1
    SUBS Eng | Fre | Spa


    Vui Xuân cùng hài tết Xuân Hinh 2011 bản đẹp




    http://letitbit.net/download/50433.5..._2011.dat.html

  2. #2
    Tham gia ngày
    Nov 2010
    Bài gửi
    109
    Thanks
    0
    Thanked 0 Times in 0 Posts
    Năng lực viết bài
    266

    Mặc định Re: Tuyển tập phim Rạp mới 2010-2011 1 link dow duy nhất

    3 phần Spider-Man: Trilogy (2002-2007) + Sub Việt




    Sub:
    http://www.duckload.com/delete/2462616/80b4ab5b


    [Bom tấn 2011] Tân thiếu lâm tự - Shaolin 2011 (chờ sub) - Võ thuật cực đẹp




    + Dowload: Vao link dow -> click "Regular download" -> click "Download on slow speed" -> doi dem nguoc ve 0 "Wait for Your turn" -> click "Link to the file download" ---> ok!

+ Viết bài mới

Thread Information

Users Browsing this Thread

There are currently 1 users browsing this thread. (0 members and 1 guests)

Quyền viết bài

  • Bạn không thể gửi chủ đề mới
  • Bạn không thể gửi trả lời
  • Bạn không thể gửi file đính kèm
  • Bạn không thể sửa bài viết của mình
  •