The Grey (2012) BRrip XViD-nCODE




http://www.imdb.com/title/tt1601913/




The.Grey.2012.BRrip.XViD-nCODE

Format : AVI
Format/Info : Audio Video Interleave
File size : 799 MiB
Duration : 1h 57mn
Overall bit rate : 950 Kbps

Video
ID : 0
Format : MPEG-4 Visual
Format profile : Advanced [email protected]
Format settings, BVOP : 2
Format settings, QPel : No
Format settings, GMC : No warppoints
Format settings, Matrix : Default (H.263)
Codec ID : XVID
Codec ID/Hint : XviD
Duration : 1h 57mn
Bit rate : 833 Kbps
Width : 640 pixels
Height : 272 pixels
Display aspect ratio : 2.35:1
Frame rate : 23.976 fps
Color space : YUV
Chroma subsampling : 4:2:0
Bit depth : 8 bits
Scan type : Progressive
Compression mode : Lossy
Bits/(Pixel*Frame) : 0.199
Stream size : 700 MiB (88%)
Writing library : XviD 1.2.1 (UTC 2008-12-04)

Audio
ID : 1
Format : MPEG Audio
Format version : Version 1
Format profile : Layer 3
Mode : Joint stereo
Codec ID : 55
Codec ID/Hint : MP3
Duration : 1h 57mn
Bit rate mode : Constant
Bit rate : 112 Kbps
Channel(s) : 2 channels
Sampling rate : 44.1 KHz
Compression mode : Lossy
Stream size : 94.2 MiB (12%)
Alignment : Aligned on interleaves
Interleave, duration : 167 ms (4.00 video frames)
Interleave, preload duration : 208 ms
Title : Retail Blueray(Sparks) ripped by nCODE
Writing library : LAME3.99r
Encoding settings : -m j -V 4 -q 2 -lowpass 15.6 -b 112

i tried every source from DVDR, 720p, 1080p















http://www.filereactor.com/tsu5iy0ny...part1.rar.html
http://www.filereactor.com/wq6219r6j...part2.rar.html
http://www.filereactor.com/6jk97zcmg...part3.rar.html


http://extabit.com/file/28dwejp9vymn...xvid_ncode.avi


http://www.filefactory.com/file/3vuj....avi.part3.rar
http://www.filefactory.com/file/2qqs....avi.part2.rar
http://www.filefactory.com/file/c5ae....avi.part1.rar


http://bitshare.com/files/s2oh7z5x/t...vid_..avi.html


Ufile
http://ufile.eu/v3u89suz4rlz
http://ufile.eu/u5b97ndeab2g
http://ufile.eu/jgm0bcf6st9q






PLEASE, DON'T JUST DOWNLOAD AND DISAPPEAR

POST A REPLY TO MAKE THIS POST ALIVE AND MY EFFORTS WORTHWHILE, PLZ

IT ONLY TAKES 3 SECONDS TO TYPE "THANK". I THINK 4 FILEHOSTS LINK DESERVE A "THANK"

THANK YOU VERY MUCH IN ADVANCE...