Sherlock Holmes A Game of Shadows (2011) BRrip XViD-nCODE




http://www.imdb.com/title/tt1515091/




Sherlock.Holmes.A.Game.of.Shadows.2011.BRrip.XViD-nCODE

Format : AVI
Format/Info : Audio Video Interleave
File size : 800 MiB
Duration : 2h 8mn
Overall bit rate : 870 Kbps

Video
ID : 0
Format : MPEG-4 Visual
Format profile : Advanced [email protected]
Format settings, BVOP : 2
Format settings, QPel : No
Format settings, GMC : No warppoints
Format settings, Matrix : Default (H.263)
Codec ID : XVID
Codec ID/Hint : XviD
Duration : 2h 8mn
Bit rate : 752 Kbps
Width : 640 pixels
Height : 272 pixels
Display aspect ratio : 2.35:1
Frame rate : 23.976 fps
Color space : YUV
Chroma subsampling : 4:2:0
Bit depth : 8 bits
Scan type : Progressive
Compression mode : Lossy
Bits/(Pixel*Frame) : 0.180
Stream size : 692 MiB (86%)
Writing library : XviD 1.2.1 (UTC 2008-12-04)

Audio
ID : 1
Format : MPEG Audio
Format version : Version 1
Format profile : Layer 3
Mode : Joint stereo
Mode extension : MS Stereo
Codec ID : 55
Codec ID/Hint : MP3
Duration : 2h 8mn
Bit rate mode : Constant
Bit rate : 112 Kbps
Channel(s) : 2 channels
Sampling rate : 44.1 KHz
Compression mode : Lossy
Stream size : 103 MiB (13%)
Alignment : Aligned on interleaves
Interleave, duration : 167 ms (4.00 video frames)
Interleave, preload duration : 208 ms
Title : by nCODE
Writing library : LAME3.99r















http://www.filereactor.com/styxtcdcl.....rar.001.html
http://www.filereactor.com/5rmokrq8q.....rar.002.html
http://www.filereactor.com/wq4lgz4kg.....rar.003.html
http://www.filereactor.com/mvbjxw6sq.....rar.004.html


http://extabit.com/file/28dwejp9vyt4...01M2OllXVD.rar


http://www.filefactory.com/file/1s9k...lXVD...rar.003
http://www.filefactory.com/file/2fz7...lXVD...rar.002
http://www.filefactory.com/file/2029...lXVD...rar.001
http://www.filefactory.com/file/5ves...lXVD...rar.004



http://bitshare.com/files/r5m57dg9/5...llXVD.rar.html


Freakshare
http://freakshare.com/files/g1z90gwn...llXVD.rar.html






PLEASE, DON'T JUST DOWNLOAD AND DISAPPEAR

POST A REPLY TO MAKE THIS POST ALIVE AND MY EFFORTS WORTHWHILE, PLZ

IT ONLY TAKES 3 SECONDS TO TYPE "THANK". I THINK 4 FILEHOSTS LINK DESERVE A "THANK"

THANK YOU VERY MUCH IN ADVANCE...