The Avengers 2012 HD TS READNFO XviD-26k

The Avengers 2012 HD TS READNFO XviD-26k | 1.47 GB



http://www.imdb.com/title/tt0848228/



Plot:

Nick Fury of S.H.I.E.L.D. brings together a team of super humans to form The Avengers

to help save the Earth from Loki and his army.







Sources - VIDEO: Chinese HDCAM VOBs/a friend for 2nd extra scene ....Thanks :P

AUDIO: ADTRG/ a friends for 2nd extra scene ...Thanks :P

SUBS: YES - for all non englush speaking part..... me and a frined... Thanks :P



Format : AVI

Format/Info : Audio Video Interleave

File size : 1.47 GiB

Duration : 2h 16mn

Overall bit rate : 1 537 Kbps

Writing library : VirtualDub build 32839/release



Video

ID : 0

Format : MPEG-4 Visual

Format profile : Advanced [email protected]

Format settings, BVOP : 2

Format settings, QPel : No

Format settings, GMC : No warppoints

Format settings, Matrix : Default (H.263)

Muxing mode : Packed bitstream

Codec ID : XVID

Codec ID/Hint : XviD

Duration : 2h 16mn

Bit rate : 1 397 Kbps

Width : 720 pixels

Height : 320 pixels

Display aspect ratio : 2.25:1

Frame rate : 29.970 fps

Color space : YUV

Chroma subsampling : 4:2:0

Bit depth : 8 bits

Scan type : Progressive

Compression mode : Lossy

Bits/(Pixel*Frame) : 0.202

Stream size : 1.34 GiB (91%)

Writing library : XviD 1.2.1 (UTC 2008-12-04)



Audio

ID : 1

Format : MPEG Audio

Format version : Version 1

Format profile : Layer 3

Mode : Joint stereo

Codec ID : 55

Codec ID/Hint : MP3

Duration : 2h 16mn

Bit rate mode : Constant

Bit rate : 128 Kbps

Channel(s) : 2 channels

Sampling rate : 44.1 KHz

Compression mode : Lossy

Stream size : 125 MiB (8%)

Alignment : Split accross interleaves

Interleave, duration : 33 ms (1.00 video frame)

Interleave, preload duration : 500 ms

Writing library : LAME3.98

Notes -

K well for the READNFO.. VOBS were very nice.. made a script to crop, resize, denoise..

then dropped that into VDUB where the real work was... Denoised sum more, no color adjustment

at all was really needed just altered brightness, contrast,intensity, and a few other

minor things... Then HARD cODED all English subs.. all 3 different languages.. they are on time

then the fun part was the 2nd extra scene it does have CAM audio but oh well there is no talking

on screen anyway.. then just synced up ADTRG's LiNE to my encode and appened it all together...

enjoy a FULL PROPER RELEASE........

Enjoy!!

TraiLer


http://www.youtube.com/watch?v=a-7MWYqicC0



=====

SCREENSHOTS :




Download Links :


Say "thanks" in Reply If you like my post, Please!



http://extabit.com/file/27b6ht4mca40...-26k.part1.rar
http://extabit.com/file/27b6ht4mca0o...-26k.part2.rar
http://extabit.com/file/27b6ht4mc9o4...-26k.part3.rar
http://extabit.com/file/27b6ht4mc9rb...-26k.part4.rar




http://ryushare.com/29ed7e2034cb/The...-26k.part1.rar
http://ryushare.com/264a2b8bf61f/The...-26k.part2.rar
http://ryushare.com/2904a97b2582/The...-26k.part3.rar
http://ryushare.com/281bd4d6166f/The...-26k.part4.rar