Bel Ami 2012 720p BluRay x264 AC3

Bel Ami 2012 720p BluRay x264 AC3 | 4.40 GB

http://www.imdb.com/title/tt1440732/

Sources:
Video: Miliy.Drug.2012.1080p.MPEG-4-AVC.Blu-ray

Audio: Own 720p VOD [For clarification: NOT converted from mp3,
NOT Custom AC3, and NOT audio from any INTERNAL rls]



Format : Matroska
Format version : Version 2
File size : 4.40 GiB
Duration : 1h 42mn
Overall bit rate mode : Variable
Overall bit rate : 6 149 Kbps
Movie name : video
Encoded date : UTC 2012-05-09 20:37:33
Writing application : mkvmerge v5.2.0 ('I can't explain') built on Dec 29 2011 19:29:57
Writing library : libebml v1.2.3 + libmatroska v1.3.0

Video
ID : 1
Format : AVC
Format/Info : Advanced Video Codec
Format profile : [email protected]
Format settings, CABAC : Yes
Format settings, ReFrames : 5 frames
Codec ID : V_MPEG4/ISO/AVC
Duration : 1h 42mn
Bit rate mode : Variable
Bit rate : 5 764 Kbps
Maximum bit rate : 62.5 Mbps
Width : 1 280 pixels
Height : 536 pixels
Display aspect ratio : 2.40:1
Frame rate : 23.976 fps
Color space : YUV
Chroma subsampling : 4:2:0
Bit depth : 8 bits
Scan type : Progressive
Bits/(Pixel*Frame) : 0.350
Stream size : 4.04 GiB (92%)
Writing library : x264 core 120 r2120 0c7dab9
Encoding settings : cabac=1 / ref=5 / deblock=1:0:0 / analyse=0x3:0x113 / me=hex / subme=7 / psy=1 / psy_rd=1.00:0.00 / mixed_ref=1 / me_range=16 / chroma_me=1 / trellis=1 / 8x8dct=1 / cqm=0 / deadzone=21,11 / fast_pskip=1 / chroma_qp_offset=-2 / threads=6 / sliced_threads=0 / nr=0 / decimate=1 / interlaced=0 / bluray_compat=0 / constrained_intra=0 / bframes=3 / b_pyramid=0 / b_adapt=1 / b_bias=0 / direct=1 / weightb=1 / open_gop=0 / weightp=2 / keyint=240 / keyint_min=24 / scenecut=40 / intra_refresh=0 / rc_lookahead=40 / rc=2pass / mbtree=1 / bitrate=5764 / ratetol=1.0 / qcomp=0.60 / qpmin=0 / qpmax=69 / qpstep=4 / cplxblur=20.0 / qblur=0.5 / vbv_maxrate=62500 / vbv_bufsize=62500 / nal_hrd=vbr / ip_ratio=1.40 / aq=1:1.00
Default : Yes
Forced : No

Audio
ID : 2
Format : AC-3
Format/Info : Audio Coding 3
Mode extension : CM (complete main)
Format settings, Endianness : Big
Codec ID : A_AC3
Duration : 1h 42mn
Bit rate mode : Constant
Bit rate : 384 Kbps
Channel(s) : 6 channels
Channel positions : Front: L C R, Side: L R, LFE
Sampling rate : 48.0 KHz
Bit depth : 16 bits
Compression mode : Lossy
Delay relative to video : 1s 200ms
Stream size : 281 MiB (6%)
Language : English
Default : Yes
Forced : No

Menu
00:00:00.000 : en:00:00:00.000
00:06:39.750 : en:00:06:39.750
00:11:51.250 : en:00:11:51.250
00:19:38.500 : en:00:19:38.500
00:25:03.042 : en:00:25:03.042
00:33:08.750 : en:00:33:08.750
00:36:40.833 : en:00:36:40.833
00:44:03.083 : en:00:44:03.083
00:55:29.583 : en:00:55:29.583
01:02:14.167 : en:01:02:14.167
01:08:27.833 : en:01:08:27.833
01:14:36.750 : en:01:14:36.750
01:22:15.250 : en:01:22:15.250
01:27:59.500 : en:01:27:59.500
01:34:19.833 : en:01:34:19.833

TraiLer


http://www.youtube.com/watch?v=HlFlZVLG46c



=====

SCREENSHOTS :




Download Links :


Say "thanks" in Reply If you like my post, Please!



http://extabit.com/file/27b6ht4i2p6d....AC3.part1.rar
http://extabit.com/file/27b6ht4i2p6e....AC3.part2.rar
http://extabit.com/file/27b6ht4i2ppd....AC3.part3.rar
http://extabit.com/file/27b6ht4mdji0....AC3.part4.rar
http://extabit.com/file/27b6ht4mdji0....AC3.part4.rar
http://extabit.com/file/27b6ht4i22ix....AC3.part5.rar
http://extabit.com/file/27b6ht4i22iw....AC3.part6.rar




http://ryushare.com/281bd4d61666/Bel....AC3.part1.rar
http://ryushare.com/264a2b8bf614/Bel....AC3.part2.rar
http://ryushare.com/2733003105d0/Bel....AC3.part3.rar
http://ryushare.com/2733003105d1/Bel....AC3.part4.rar
http://ryushare.com/2733003105d1/Bel....AC3.part4.rar
http://ryushare.com/2733003105d3/Bel....AC3.part5.rar
http://ryushare.com/29ed7e2034bd/Bel....AC3.part6.rar