Journey 2 The Mysterious Island (2012) BRrip XviD-nCODE




http://www.imdb.com/title/tt1397514/




Journey.2.The.Mysterious.Island.2012.BRrip.XviD-nCODE

Format : AVI
Format/Info : Audio Video Interleave
File size : 700 MiB
Duration : 1h 34mn
Overall bit rate : 1 039 Kbps

Video
ID : 0
Format : MPEG-4 Visual
Format profile : Advanced [email protected]
Format settings, BVOP : 2
Format settings, QPel : No
Format settings, GMC : No warppoints
Format settings, Matrix : Default (H.263)
Codec ID : XVID
Codec ID/Hint : XviD
Duration : 1h 34mn
Bit rate : 905 Kbps
Width : 624 pixels
Height : 336 pixels
Display aspect ratio : 1.85:1
Frame rate : 23.976 fps
Color space : YUV
Chroma subsampling : 4:2:0
Bit depth : 8 bits
Scan type : Progressive
Compression mode : Lossy
Bits/(Pixel*Frame) : 0.180
Stream size : 610 MiB (87%)
Writing library : XviD 1.2.1 (UTC 2008-12-04)

Audio
ID : 1
Format : MPEG Audio
Format version : Version 1
Format profile : Layer 3
Mode : Joint stereo
Mode extension : MS Stereo
Codec ID : 55
Codec ID/Hint : MP3
Duration : 1h 34mn
Bit rate mode : Constant
Bit rate : 128 Kbps
Channel(s) : 2 channels
Sampling rate : 48.0 KHz
Compression mode : Lossy
Stream size : 86.2 MiB (12%)
Alignment : Aligned on interleaves
Interleave, duration : 167 ms (4.00 video frames)
Interleave, preload duration : 216 ms
Title : by nCODE
Writing library : LAME3.99r
Encoding settings : -m j -V 4 -q 2 -lowpass 17 -b 128
















http://www.filereactor.com/2o61gl3rm...part1.rar.html
http://www.filereactor.com/j1gp0icmz...part2.rar.html
http://www.filereactor.com/boukifibp...part3.rar.html


http://extabit.com/file/28dweitxztzd...XviD-nCODE.avi


http://www.filefactory.com/file/6gpt....avi.part1.rar
http://www.filefactory.com/file/3kt9....avi.part2.rar
http://www.filefactory.com/file/249r....avi.part3.rar



http://bitshare.com/files/c7u7u443/J...nCODE.avi.html


Freakshare
http://freakshare.com/files/faxfh16o...nCODE.avi.html






PLEASE, DON'T JUST DOWNLOAD AND DISAPPEAR

POST A REPLY TO MAKE THIS POST ALIVE AND MY EFFORTS WORTHWHILE, PLZ

IT ONLY TAKES 3 SECONDS TO TYPE "THANK". I THINK 4 FILEHOSTS LINK DESERVE A "THANK"

THANK YOU VERY MUCH IN ADVANCE...