Moneyball (2011) BRrip XviD-nCODE




http://www.imdb.com/title/tt1210166/




Moneyball.2011.BRrip.XviD-nCODE

Format : AVI
Format/Info : Audio Video Interleave
File size : 799 MiB
Duration : 2h 13mn
Overall bit rate : 839 Kbps

Video
ID : 0
Format : MPEG-4 Visual
Format profile : Advanced [email protected]
Format settings, BVOP : 2
Format settings, QPel : No
Format settings, GMC : No warppoints
Format settings, Matrix : Default (H.263)
Codec ID : XVID
Codec ID/Hint : XviD
Duration : 2h 13mn
Bit rate : 721 Kbps
Width : 624 pixels
Height : 336 pixels
Display aspect ratio : 1.857
Frame rate : 23.976 fps
Color space : YUV
Chroma subsampling : 4:2:0
Bit depth : 8 bits
Scan type : Progressive
Compression mode : Lossy
Bits/(Pixel*Frame) : 0.143
Stream size : 687 MiB (86%)
Writing library : XviD 1.2.1 (UTC 2008-12-04)

Audio
ID : 1
Format : MPEG Audio
Format version : Version 1
Format profile : Layer 3
Mode : Joint stereo
Mode extension : MS Stereo
Codec ID : 55
Codec ID/Hint : MP3
Duration : 2h 13mn
Bit rate mode : Constant
Bit rate : 112 Kbps
Channel(s) : 2 channels
Sampling rate : 44.1 KHz
Compression mode : Lossy
Stream size : 107 MiB (13%)
Alignment : Aligned on interleaves
Interleave, duration : 167 ms (4.00 video frames)
Interleave, preload duration : 208 ms
Title : ### ViSiT nCODE @ WareZ-bb ###
Writing library : LAME3.98r
Encoding settings : -m j -V 4 -q 2 -lowpass 15.6 -b 112












Filereactor
http://www.filereactor.com/bsv1rqydp...part1.rar.html
http://www.filereactor.com/zltdn5hrr...part2.rar.html
http://www.filereactor.com/009ry1rhp...part3.rar.html
http://www.filereactor.com/d6xw7ajku...part4.rar.html

Freakshare
http://freakshare.com/files/c34yeh37...nCODE.avi.html

Extabit
http://extabit.com/file/28dweiusgdpy...rip.XviD_..avi

Filefactory
http://www.filefactory.com/file/74px....avi.part1.rar
http://www.filefactory.com/file/2c4t....avi.part3.rar
http://www.filefactory.com/file/bxqx....avi.part4.rar
http://www.filefactory.com/file/12vk....avi.part2.rar


Bitshare
http://bitshare.com/files/u4x9opnd/M...viD_..avi.html









PLEASE, DON'T JUST DOWNLOAD AND DISAPPEAR

POST A REPLY TO MAKE THIS POST ALIVE AND MY EFFORTS WORTHWHILE, PLZ

IT ONLY TAKES 3 SECONDS TO TYPE "THANK". I THINK 4 FILEHOSTS LINK DESERVE A "THANK"

THANK YOU VERY MUCH IN ADVANCE...