The Three Stooges 2012 TS XviD-26k

The Three Stooges 2012 TS XviD-26k | 1.43 GB

http://www.imdb.com/title/tt0383010/

Plot:
While trying to save their childhood orphanage, Moe, Larry, and Curly inadvertently
stumble into a murder plot and wind up starring in a reality TV show.


Sources - UnKnOwN...Thanks :P

Format : AVI
Format/Info : Audio Video Interleave
File size : 1.41 GiB
Duration : 1h 26mn
Overall bit rate : 2 339 Kbps
Writing library : VirtualDub build 32839/release

Video
ID : 0
Format : MPEG-4 Visual
Format profile : Advanced [email protected]
Format settings, BVOP : 2
Format settings, QPel : No
Format settings, GMC : No warppoints
Format settings, Matrix : Default (H.263)
Muxing mode : Packed bitstream
Codec ID : XVID
Codec ID/Hint : XviD
Duration : 1h 26mn
Bit rate : 2 135 Kbps
Width : 720 pixels
Height : 400 pixels
Display aspect ratio : 16:9
Frame rate : 29.641 fps
Color space : YUV
Chroma subsampling : 4:2:0
Bit depth : 8 bits
Scan type : Progressive
Compression mode : Lossy
Bits/(Pixel*Frame) : 0.250
Stream size : 1.29 GiB (91%)
Writing library : XviD 1.2.1 (UTC 2008-12-04)

Audio
ID : 1
Format : MPEG Audio
Format version : Version 1
Format profile : Layer 3
Codec ID : 55
Codec ID/Hint : MP3
Duration : 1h 26mn
Bit rate mode : Constant
Bit rate : 192 Kbps
Channel(s) : 2 channels
Sampling rate : 44.1 KHz
Compression mode : Lossy
Stream size : 119 MiB (8%)
Alignment : Split accross interleaves
Interleave, duration : 34 ms (1.00 video frame)
Interleave, preload duration : 500 ms
Writing library : LAME3.98.4




Notes -

1st of totally decompressed vid and demuxed audio.. made an avs script for vid to

denoise then
dropped that into vdub to denoise a lil more. slight rgb, saturation, levels,

contrast changes
then just sharpened it up a lil bit.. cleaned audio up a lil bit as was good already

and then
just remuxed it back to the encode...... enjoy

TraiLer


http://www.youtube.com/watch?v=Z4IoUo_ZJkY



=====

SCREENSHOTS :



Download Links :


Say "thanks" in Reply If you like my post, Please!



http://extabit.com/file/27b6hu06xk7o...-26k.part1.rar
http://extabit.com/file/27b6hu06wxnc...-26k.part2.rar
http://extabit.com/file/27b6hu06xkkc...-26k.part3.rar




http://lumfile.com/4qvpbj390onq/The....part1.rar.html
http://lumfile.com/wmo0b17nfpt1/The....part2.rar.html
http://lumfile.com/g7a2gc1wyr95/The....part3.rar.html




http://turbobit.net/ybfi0cqg235g/The...part1.rar.html
http://turbobit.net/kqjy04gq57ar/The...part2.rar.html
http://turbobit.net/dejkyjxhm85m/The...part3.rar.html