We Bought A Zoo (2012) DVDrip XViD-nCODE




http://www.imdb.com/title/tt1389137/




We.Bought.A.Zoo.2012.DVDrip.XViD-nCODE

Format : AVI
Format/Info : Audio Video Interleave
File size : 797 MiB
Duration : 2h 3mn
Overall bit rate : 900 Kbps

Video
ID : 0
Format : MPEG-4 Visual
Format profile : Advanced [email protected]
Format settings, BVOP : 2
Format settings, QPel : No
Format settings, GMC : No warppoints
Format settings, Matrix : Default (H.263)
Codec ID : XVID
Codec ID/Hint : XviD
Duration : 2h 3mn
Bit rate : 766 Kbps
Width : 624 pixels
Height : 336 pixels
Display aspect ratio : 1.857
Frame rate : 23.976 fps
Color space : YUV
Chroma subsampling : 4:2:0
Bit depth : 8 bits
Scan type : Progressive
Compression mode : Lossy
Bits/(Pixel*Frame) : 0.152
Stream size : 679 MiB (85%)
Writing library : XviD 1.2.1 (UTC 2008-12-04)

Audio
ID : 1
Format : MPEG Audio
Format version : Version 1
Format profile : Layer 3
Mode : Joint stereo
Mode extension : MS Stereo
Codec ID : 55
Codec ID/Hint : MP3
Duration : 2h 3mn
Bit rate mode : Constant
Bit rate : 128 Kbps
Channel(s) : 2 channels
Sampling rate : 48.0 KHz
Compression mode : Lossy
Stream size : 113 MiB (14%)
Alignment : Aligned on interleaves
Interleave, duration : 167 ms (4.00 video frames)
Interleave, preload duration : 216 ms
Title : VTS_01_1 Encoder= nCODE
Writing library : LAME3.99r
Encoding settings : -m j -V 4 -q 2 -lowpass 17 -b 128

cropped black borders, resized to 1.85 ,the movie was shot to be viewed at that aspect ratio.
a few light filters, the runtime is over 2hrs so i went with just under 800mb
i think it looks well, no artifacts etc but its your opinion that counts :)













Filereactor
http://www.filereactor.com/6pb3mnjve...0O4SO.rar.html

Extabit
http://extabit.com/file/2a10xt9r93bsb/80U6HTZ0O4SO.rar

Filefactory
http://www.filefactory.com/file/7jgs...U6HTZ0O4SO.rar








PLEASE, DON'T JUST DOWNLOAD AND DISAPPEAR

POST A REPLY TO MAKE THIS POST ALIVE AND MY EFFORTS WORTHWHILE, PLZ

IT ONLY TAKES 3 SECONDS TO TYPE "THANK". I THINK 4 FILEHOSTS LINK DESERVE A "THANK"

THANK YOU VERY MUCH IN ADVANCE...