The Innkeepers (2011) BRrip XViD-nCODE




http://www.imdb.com/title/tt1594562/




The.Innkeepers.2011.BRrip.XViD-nCODE.avi
Format : AVI
Format/Info : Audio Video Interleave
File size : 701 MiB
Duration : 1h 41mn
Overall bit rate mode : Variable
Overall bit rate : 967 Kbps

Video
ID : 0
Format : MPEG-4 Visual
Format profile : Advanced [email protected]
Format settings, BVOP : 2
Format settings, QPel : No
Format settings, GMC : No warppoints
Format settings, Matrix : Default (H.263)
Codec ID : XVID
Codec ID/Hint : XviD
Duration : 1h 41mn
Bit rate : 842 Kbps
Width : 672 pixels
Height : 288 pixels
Display aspect ratio : 2.35:1
Frame rate : 23.976 fps
Color space : YUV
Chroma subsampling : 4:2:0
Bit depth : 8 bits
Scan type : Progressive
Compression mode : Lossy
Bits/(Pixel*Frame) : 0.181
Stream size : 610 MiB (87%)
Writing library : XviD 1.2.1 (UTC 2008-12-04)

Audio
ID : 1
Format : MPEG Audio
Format version : Version 1
Format profile : Layer 3
Mode : Joint stereo
Mode extension : MS Stereo
Codec ID : 55
Codec ID/Hint : MP3
Duration : 1h 41mn
Bit rate mode : Variable
Bit rate : 113 Kbps
Nominal bit rate : 120 Kbps
Channel(s) : 2 channels
Sampling rate : 48.0 KHz
Compression mode : Lossy
Stream size : 81.6 MiB (12%)
Alignment : Aligned on interleaves
Interleave, duration : 24 ms (0.58 video frame)
Interleave, preload duration : 75 ms
Title : nCODE
Writing library : LAME3.99r
Encoding settings : -m j -V 4 -q 2 -lowpass 17 --abr 120













Freakshare
http://freakshare.com/files/46l59tdd...nCODE.avi.html

Filereactor
http://www.filereactor.com/dc33d8apz...part1.rar.html
http://www.filereactor.com/ltco74rvn...part2.rar.html
http://www.filereactor.com/mtz3iw67f...part3.rar.html

Extabit
http://extabit.com/file/28do6fn4ep0c...XViD_nCODE.avi

Filefactory
http://www.filefactory.com/file/67ax....avi.part3.rar
http://www.filefactory.com/file/13gz....avi.part1.rar
http://www.filefactory.com/file/63sp....avi.part2.rar











PLEASE, DON'T JUST DOWNLOAD AND DISAPPEAR

POST A REPLY TO MAKE THIS POST ALIVE AND MY EFFORTS WORTHWHILE, PLZ

IT ONLY TAKES 3 SECONDS TO TYPE "THANK". I THINK 4 FILEHOSTS LINK DESERVE A "THANK"

THANK YOU VERY MUCH IN ADVANCE...