Limitless (2011) UNRATED DvDrip XviD-nCODE




http://www.imdb.com/title/tt1219289/




Limitless.2011.UNRATED.DvDrip.XviD-nCODE

Format : AVI
Format/Info : Audio Video Interleave
File size : 701 MiB
Duration : 1h 45mn
Overall bit rate : 928 Kbps
Writing application : Nandub v1.0rc2
Writing library : Nandub build 1853/release

Video
ID : 0
Format : MPEG-4 Visual
Format profile : Advanced [email protected]
Format settings, BVOP : 2
Format settings, QPel : No
Format settings, GMC : No warppoints
Format settings, Matrix : Default (H.263)
Codec ID : XVID
Codec ID/Hint : XviD
Duration : 1h 45mn
Bit rate : 791 Kbps
Width : 640 pixels
Height : 256 pixels
Display aspect ratio : 2.500
Frame rate : 23.976 fps
Color space : YUV
Chroma subsampling : 4:2:0
Bit depth : 8 bits
Scan type : Progressive
Compression mode : Lossy
Bits/(Pixel*Frame) : 0.201
Stream size : 597 MiB (85%)
Writing library : XviD 1.2.1 (UTC 2008-12-04)

Audio
ID : 1
Format : MPEG Audio
Format version : Version 1
Format profile : Layer 3
Mode : Joint stereo
Codec ID : 55
Codec ID/Hint : MP3
Duration : 1h 45mn
Bit rate mode : Constant
Bit rate : 128 Kbps
Channel(s) : 2 channels
Sampling rate : 48.0 KHz
Compression mode : Lossy
Stream size : 96.6 MiB (14%)
Alignment : Split accross interleaves
Interleave, duration : 42 ms (1.00 video frame)
Interleave, preload duration : 500 ms
Writing library : LAME3.98r













Freakshare
http://freakshare.com/files/9dfb9vav...nCODE.avi.html

Filereactor
http://www.filereactor.com/jf5ey6iwh...part1.rar.html
http://www.filereactor.com/x96yohjmd...part2.rar.html
http://www.filereactor.com/dnxqz2t1y...part3.rar.html

Extabit
http://extabit.com/file/28do6fo3yica...XviD-nCODE.avi

Filefactory
http://www.filefactory.com/file/1c54....avi.part2.rar
http://www.filefactory.com/file/4de4....avi.part1.rar
http://www.filefactory.com/file/4fnd....avi.part3.rar











PLEASE, DON'T JUST DOWNLOAD AND DISAPPEAR

POST A REPLY TO MAKE THIS POST ALIVE AND MY EFFORTS WORTHWHILE, PLZ

IT ONLY TAKES 3 SECONDS TO TYPE "THANK". I THINK 4 FILEHOSTS LINK DESERVE A "THANK"

THANK YOU VERY MUCH IN ADVANCE...