Fast.Five.2011.Theatrical.Cut.DVDRip.XviD-EXViD Fast.Five.2011.Theatrical.Cut.DVDRip.XviD-EXViD EXViD aims to iNTERNAL those releases which have been lost in the archives. EXViD aims to PRE non-internal releases which have poor sources and are likely skipped by others. http://www.imdb.com/title/tt1596343/ Subtitles: EN, DE, TR, NL, DA, FI, NO, SV Date: 2011.09 Director: Justin Lin Genres: Action | Crime | Drama | Thriller Plot: Former cop Brian O'Conner partners with ex-con Dom Toretto on the opposite side of the law. Since Brian and Mia Toretto broke Dom out of custody, they've blown across many borders to elude authorities. Now backed into a corner in Rio de Janeiro, they must pull one last job in order to gain their freedom. As they assemble their elite team of top racers, the unlikely allies know their only shot of getting out for good means confronting the corrupt businessman who wants them dead. But he's not the only one on their tail. Hard-nosed federal agent Luke Hobbs never misses his target. When he is assigned to track down Dom and Brian, he and his strike team launch an all-out assault to capture them. But as his men tear through Brazil, Hobbs learns he can't separate the good guys from the bad. Now, he must rely on his instincts to corner his prey... before someone else runs them down first. Orignal Provider --> Freshwap.com Fast.Five.2011.Theatrical.Cut.DVDRip.XviD-EXViD EXViD aims to iNTERNAL those releases which have been lost in the archives. EXViD aims to PRE non-internal releases which have poor sources and are likely skipped by others. http://www.imdb.com/title/tt1596343/ Subtitles: EN, DE, TR, NL, DA, FI, NO, SV Date: 2011.09 Director: Justin Lin Genres: Action | Crime | Drama | Thriller Plot: Former cop Brian O'Conner partners with ex-con Dom Toretto on the opposite side of the law. Since Brian and Mia Toretto broke Dom out of custody, they've blown across many borders to elude authorities. Now backed into a corner in Rio de Janeiro, they must pull one last job in order to gain their freedom. As they assemble their elite team of top racers, the unlikely allies know their only shot of getting out for good means confronting the corrupt businessman who wants them dead. But he's not the only one on their tail. Hard-nosed federal agent Luke Hobbs never misses his target. When he is assigned to track down Dom and Brian, he and his strike team launch an all-out assault to capture them. But as his men tear through Brazil, Hobbs learns he can't separate the good guys from the bad. Now, he must rely on his instincts to corner his prey... before someone else runs them down first. Cast: Vin Diesel ... Dominic Toretto Paul Walker ... Brian O'Conner Jordana Brewster ... Mia Toretto Tyrese Gibson ... Roman Pearce Ludacris ... Tej Parker (as Chris 'Ludacris' Bridges) Elsa Pataky ... Elena Neves Gal Gadot ... Gisele Harabo Tego Calderon ... Tego Leo Don Omar ... Rico Santos Matt Schulze ... Vince Dwayne Johnson ... Luke Hobbs Sung Kang ... Han Lue Joaquim de Almeida ... Hernan Reyes Michael Irby ... Zizi Fernando Chien ... Wilkes Stats: Format : AVI Format/Info : Audio Video Interleave File size : 1.37 GiB Duration : 2h 5mn Overall bit rate : 1 567 Kbps Writing application : Nandub v1.0rc2 Writing library : Nandub build 1852/release Video ID : 0 Format : MPEG-4 Visual Format profile : Advanced [email protected] Format settings, BVOP : 2 Format settings, QPel : No Format settings, GMC : No warppoints Format settings, Matrix : Default (H.263) Codec ID : XVID Codec ID/Hint : XviD Duration : 2h 5mn Bit rate : 1 176 Kbps Width : 640 pixels Height : 272 pixels Display aspect ratio : 2.35:1 Frame rate : 25.000 fps Color space : YUV Chroma subsampling : 4:2:0 Bit depth : 8 bits Scan type : Progressive Compression mode : Lossy Bits/(Pixel*Frame) : 0.270 Stream size : 1.03 GiB (75%) Writing library : XviD 64 Audio ID : 1 Format : AC-3 Format/Info : Audio Coding 3 Mode extension : CM (complete main) Codec ID : 2000 Duration : 2h 5mn Bit rate mode : Constant Bit rate : 384 Kbps Channel(s) : 6 channels Channel positions : Front: L C R, Side: L R, LFE Sampling rate : 48.0 KHz Bit depth : 16 bits Compression mode : Lossy Stream size : 343 MiB (25%) Alignment : Aligned on interleaves Interleave, duration : 96 ms (2.40 video frames) Interleave, preload duration : 96 ms
Read more at collection by xuanxasa (Daily Update) ''click link'' http:/// Buy a premium extabit.com to download file with fast speed Premium referral link: http://extabit.com/premium.jsp?aff=edc15bba13b8f9d3 or Buy a premium rapidgator.net to download file with fast speed Premium referral link: http://rapidgator.net/article/premium/ref/47860 Written answers for you or me thanks
turbobit http://turbobit.net/csap9pn0tt39/Fas...D-cd1.avi.html http://turbobit.net/evs87x84g8wn/Fas...D-cd2.avi.html