Immortals 2011 BRrip XviD-nCODE


Imdb

http://www.imdb.com/title/tt1253864/


Info

Immortals.2011.BRrip.XviD-nCODE

Format : AVI
Format/Info : Audio Video Interleave
File size : 798 MiB
Duration : 1h 50mn
Overall bit rate : 1 010 Kbps

Video
ID : 0
Format : MPEG-4 Visual
Format profile : Advanced [email protected]
Format settings, BVOP : 2
Format settings, QPel : No
Format settings, GMC : No warppoints
Format settings, Matrix : Default (H.263)
Codec ID : XVID
Codec ID/Hint : XviD
Duration : 1h 50mn
Bit rate : 876 Kbps
Width : 624 pixels
Height : 336 pixels
Display aspect ratio : 1.857
Frame rate : 23.976 fps
Color space : YUV
Chroma subsampling : 4:2:0
Bit depth : 8 bits
Scan type : Progressive
Compression mode : Lossy
Bits/(Pixel*Frame) : 0.174
Stream size : 692 MiB (87%)
Writing library : XviD 1.2.1 (UTC 2008-12-04)

Audio
ID : 1
Format : MPEG Audio
Format version : Version 1
Format profile : Layer 3
Mode : Joint stereo
Mode extension : MS Stereo
Codec ID : 55
Codec ID/Hint : MP3
Duration : 1h 50mn
Bit rate mode : Constant
Bit rate : 128 Kbps
Channel(s) : 2 channels
Sampling rate : 48.0 KHz
Compression mode : Lossy
Stream size : 101 MiB (13%)
Alignment : Aligned on interleaves
Interleave, duration : 167 ms (4.00 video frames)
Interleave, preload duration : 216 ms
Title : ~ ViSiT nCODE @ WareZ-bb ~
Writing library : LAME3.99r


Screenshots







Download




Filereactor
http://www.filereactor.com/5xt5ag45m...798...rar.html


Extabit
http://extabit.com/file/28do6gjx64iuq/1M0RTL5798.rar




PLEASE, DON'T JUST DOWNLOAD AND DISAPPEAR

POST A REPLY TO MAKE THIS POST ALIVE AND MY EFFORTS WORTHWHILE, PLZ

IT ONLY TAKES 3 SECONDS TO TYPE "THANK". I THINK 4 FILEHOSTS LINK DESERVE A "THANK"

THANK YOU VERY MUCH IN ADVANCE...