The Lucky One 2012 720P TS XViD-26K

The Lucky One 2012 720P TS XViD-26K | 1.99 GB

Imdb:
http://www.imdb.com/title/tt1327194/

Plot:
A Marine travels to Louisiana after serving three tours in Iraq and searches for the unknown woman he believes was his good luck charm during the war.

Sources:
VIDEO-720P TNZ
AUDIO-UNKNOWN!

Notes:
video is very good thnxs tnz man you rock!!!!!!! needed a bit of crop from the top and the side... then resized after crop... added a few filters to the video to make it look nice :) then muxed and synced unknowns line..

Greetz:
Xtreme Encode|FYA|ILLUMANTI|CM8|RX|VISION|HDSCENE|NIGHTMAREZ|xTriLL|DTRG|CRYS|REMIXHD|BIDA|RX|REFILL|INSPiRAL|SIC|HOPE|Anonymous|GooN|P76|MIRAGE|ESCA|KoDeKinG

To all the people who have helped me :P you know who you are

Anything to offer email us @: [email protected]

Video
ID : 0
Format : MPEG-4 Visual
Format profile : Advanced [email protected]
Format settings, BVOP : 2
Format settings, QPel : No
Format settings, GMC : No warppoints
Format settings, Matrix : Default (H.263)
Muxing mode : Packed bitstream
Codec ID : XVID
Codec ID/Hint : XviD
Duration : 1h 37mn
Bit rate : 2 700 Kbps
Width : 1 280 pixels
Height : 500 pixels
Display aspect ratio : 2.560
Frame rate : 25.000 fps
Color space : YUV
Chroma subsampling : 4:2:0
Bit depth : 8 bits
Scan type : Progressive
Compression mode : Lossy
Bits/(Pixel*Frame) : 0.169
Stream size : 1.83 GiB (95%)
Writing library : XviD 64

Audio
ID : 1
Format : MPEG Audio
Format version : Version 1
Format profile : Layer 3
Mode : Joint stereo
Mode extension : MS Stereo
Codec ID : 55
Codec ID/Hint : MP3
Duration : 1h 37mn
Bit rate mode : Constant
Bit rate : 128 Kbps
Channel(s) : 2 channels
Sampling rate : 44.1 KHz
Compression mode : Lossy
Delay relative to video : 1s 0ms
Stream size : 89.0 MiB (5%)
Alignment : Split accross interleaves
Interleave, duration : 16348 ms (408.70 video frames)


TraiLer


http://www.youtube.com/watch?v=Two1IvWjibM



=====

SCREENSHOTS :




Download Links :


Say "thanks" in Reply If you like my post, Please!



http://extabit.com/file/27b6hnv6rnf6...-26K.part1.rar
http://extabit.com/file/27b6hnv6rnbz...-26K.part2.rar
http://extabit.com/file/27b6hnv6ro7l...-26K.part3.rar




http://rapidgator.net/file/13168510/...part1.rar.html
http://rapidgator.net/file/13168507/...part2.rar.html
http://rapidgator.net/file/13127393/...part3.rar.html




http://turbobit.net/3t57bh7axui0/The...part1.rar.html
http://turbobit.net/h30y15uzpgal/The...part2.rar.html
http://turbobit.net/qg1agbejlqth/The...part3.rar.html