The Best Exotic Marigold Hotel 2012 TS XviD AC3-26K

The Best Exotic Marigold Hotel 2012 TS XviD AC3-26K | 1.33 GB

http://www.imdb.com/title/tt1412386/

Plot:
British retirees travel to India to take up residence in what they believe is a newly restored hotel.
Less luxurious than its advertisements, the Marigold Hotel nevertheless slowly begins to charm in
unexpected ways.

Sources - OWN...... :P

Format : AVI
Format/Info : Audio Video Interleave
File size : 1.32 GiB
Duration : 1h 57mn
Overall bit rate : 1 614 Kbps
Writing application : VirtualDubMod 1.5.1.1a (build 1155/release)
Writing library : VirtualDubMod build 1155/release

Video
ID : 0
Format : MPEG-4 Visual
Format profile : Advanced [email protected]
Format settings, BVOP : 2
Format settings, QPel : No
Format settings, GMC : No warppoints
Format settings, Matrix : Default (H.263)
Muxing mode : Packed bitstream
Codec ID : XVID
Codec ID/Hint : XviD
Duration : 1h 57mn
Bit rate : 1 412 Kbps
Width : 720 pixels
Height : 256 pixels
Display aspect ratio : 2.813
Frame rate : 25.000 fps
Color space : YUV
Chroma subsampling : 4:2:0
Bit depth : 8 bits
Scan type : Progressive
Compression mode : Lossy
Bits/(Pixel*Frame) : 0.306
Stream size : 1.15 GiB (88%)
Writing library : XviD 1.2.1 (UTC 2008-12-04)

Audio
ID : 1
Format : AC-3
Format/Info : Audio Coding 3
Mode extension : CM (complete main)
Codec ID : 2000
Duration : 1h 57mn
Bit rate mode : Constant
Bit rate : 192 Kbps
Channel(s) : 2 channels
Channel positions : Front: L R
Sampling rate : 48.0 KHz
Bit depth : 16 bits
Compression mode : Lossy
Stream size : 161 MiB (12%)
Alignment : Split accross interleaves
Interleave, duration : 40 ms (1.00 video frame)
Interleave, preload duration : 500 ms




Notes -

1st off the imdb says 2011 but it didnt hit theaters til very recently so tagged it 2012...
Source was nice had a few lil issues did what i could. Crop, resize, denoise, adjusted a few other lil

things
then just muxd the LiNE back to it... enjoy.... :P

TraiLer


http://www.youtube.com/watch?v=dDY89LYxK0w



=====

SCREENSHOTS :




Download Links :


Say "thanks" in Reply If you like my post, Please!



http://extabit.com/file/27b6hnv6swzi...-26K.part1.rar
http://extabit.com/file/27b6hnv6s9wb...-26K.part2.rar
http://extabit.com/file/27b6hnv6saux...-26K.part3.rar




http://rapidgator.net/file/13119302/...part1.rar.html
http://rapidgator.net/file/13119337/...part2.rar.html
http://rapidgator.net/file/13119520/...part3.rar.html




http://turbobit.net/synl893dkasq/The...part1.rar.html
http://turbobit.net/8pgl2o95ayzt/The...part2.rar.html
http://turbobit.net/zu55u4d6rasz/The...part3.rar.html