Thor (2011) BRrip XViD nCODE


Imdb

http://www.imdb.com/title/tt0800369/


Info

Format : AVI
Format/Info : Audio Video Interleave
File size : 701 MiB
Duration : 1h 54mn
Overall bit rate : 853 Kbps
Writing application : Nandub v1.0rc2
Writing library : Nandub build 1853/release
Comment : VisiT nCODE @ Warez-bb

Video
ID : 0
Format : MPEG-4 Visual
Format profile : Advanced [email protected]
Format settings, BVOP : 2
Format settings, QPel : No
Format settings, GMC : No warppoints
Format settings, Matrix : Default (H.263)
Codec ID : XVID
Codec ID/Hint : XviD
Duration : 1h 54mn
Bit rate : 732 Kbps
Width : 640 pixels
Height : 272 pixels
Display aspect ratio : 2.35:1
Frame rate : 23.976 fps
Color space : YUV
Chroma subsampling : 4:2:0
Bit depth : 8 bits
Scan type : Progressive
Compression mode : Lossy
Bits/(Pixel*Frame) : 0.175
Stream size : 601 MiB (86%)
Writing library : XviD 1.2.1 (UTC 2008-12-04)

Audio
ID : 1
Format : MPEG Audio
Format version : Version 1
Format profile : Layer 3
Mode : Joint stereo
Mode extension : MS Stereo
Codec ID : 55
Codec ID/Hint : MP3
Duration : 1h 54mn
Bit rate mode : Constant
Bit rate : 112 Kbps
Channel(s) : 2 channels
Sampling rate : 44.1 KHz
Compression mode : Lossy
Stream size : 92.0 MiB (13%)
Alignment : Split accross interleaves
Interleave, duration : 42 ms (1.00 video frame)
Interleave, preload duration : 500 ms
Writing library : LAME3.98r
Encoding settings : -m j -V 4 -q 2 -lowpass 15.6 -b 112
Screenshots






Download

Filereactor

http://www.filereactor.com/b5vft8hof...part1.rar.html
http://www.filereactor.com/bps7f5xl3...part2.rar.html
http://www.filereactor.com/29s9gzuyz...part3.rar.html

Extabit
http://extabit.com/file/2a10xm9oqpvd...XViD_nCODE.avi

Filefactory
http://www.filefactory.com/file/6k03...XViD_nCODE.avi

Freakshare
http://freakshare.com/files/qerpjy7x...nCODE.avi.html

Bitshare
http://bitshare.com/files/emowrcj2/m...part1.rar.html


Rapidgator
http://rapidgator.net/file/12252643/...nCODE.avi.html






PLEASE, DON'T JUST DOWNLOAD AND DISAPPEAR

POST A REPLY TO MAKE THIS POST ALIVE AND MY EFFORTS WORTHWHILE, PLZ

IT ONLY TAKES 3 SECONDS TO TYPE "THANK". I THINK 4 FILEHOSTS LINK DESERVE A "THANK"

THANK YOU VERY MUCH IN ADVANCE...