The Cabin in the Woods 2012 CAM READNFO XviD-26k

The Cabin in the Woods 2012 CAM READNFO XviD-26k | 1.11 GB

The.Cabin.in.the.Woods.2012.CAM.READNFO.XviD-26k

Imdb:
http://www.imdb.com/title/tt1259521/

Plot:
Five friends go for a break at a remote cabin in the woods, where they get more than they bargained for. Together, they must discover the truth behind the cabin in the woods.

Sources:
video-russian
audio-own

Notes:
well here is the first cam!! not bad for a cam :) video is dark.. most of the movie is at the night time.. so i filtered the video added bit of brightness and denoised.. as for the audio is very good cam audio :) has lot of bass to it and is clear in the vocals :) so enjoy !!... plus took the piss to sync this.. its all there.. ! hd soon ;)

Greetz:
Xtreme Encode|FYA|ILLUMANTI|CM8|RX|VISION|HDSCENE|NIGHTMAREZ|xTriLL|DTRG|CRYS|REMIXHD|BIDA|RX|REFILL|INSPiRAL|SIC|HOPE|Anonymous|GooN|P76|MIRAGE|ESCA|KoDeKinG

To all the people who have helped me :P you know who you are

Anything to offer email us @: [email protected]

Video
ID : 0
Format : MPEG-4 Visual
Format profile : Advanced [email protected]
Format settings, BVOP : 2
Format settings, QPel : No
Format settings, GMC : No warppoints
Format settings, Matrix : Default (H.263)
Codec ID : XVID
Codec ID/Hint : XviD
Duration : 1h 29mn
Bit rate : 1 431 Kbps
Width : 720 pixels
Height : 272 pixels
Display aspect ratio : 2.647
Frame rate : 15.000 fps
Color space : YUV
Chroma subsampling : 4:2:0
Bit depth : 8 bits
Scan type : Progressive
Compression mode : Lossy
Bits/(Pixel*Frame) : 0.487
Stream size : 921 MiB (85%)
Writing library : XviD 64

Audio
ID : 1
Format : MPEG Audio
Format version : Version 1
Format profile : Layer 3
Codec ID : 55
Codec ID/Hint : MP3
Duration : 1h 29mn
Source duration : 1h 29mn
Bit rate mode : Constant
Bit rate : 256 Kbps
Channel(s) : 2 channels
Sampling rate : 32.0 KHz
Compression mode : Lossy
Stream size : 165 MiB (15%)
Alignment : Aligned on interleaves
Interleave, duration : 67 ms (1.00 video frame)
Writing library : LAME3.99.3

TraiLer


http://www.youtube.com/watch?v=eXfc12BqFkc



=====

SCREENSHOTS :




Download Links :


Say "thanks" in Reply If you like my post, Please!



http://extabit.com/file/27b5yz91pjtl...-26k.part3.rar
http://extabit.com/file/27b5yz91q5uw...-26k.part2.rar
http://extabit.com/file/27b5yz91q5rl...-26k.part1.rar




http://rapidgator.net/file/11248727/...part3.rar.html
http://rapidgator.net/file/11248711/...part2.rar.html
http://rapidgator.net/file/11248476/...part1.rar.html