The Grey RC BDRip READNFO 5 1 XviD AC3-KoDeKinG




http://www.imdb.com/title/tt1318514/





At the story's heart is Caesar (Andy Serkis), a chimpanzee who gains human-like intelligence and emotions from an experimental drug. Raised like a child by the drug's creator, Will Rodman (James Franco) and a primatologist Caroline Aranha (Freida Pinto), Caesar ultimately finds himself taken from the humans he loves and imprisoned in an ape sanctuary in San Bruno. Seeking justice for his fellow inmates, Caesar gives the fellow apes the same drug that he inherited. He then assembles a simian army and escapes the sanctuary - putting man and ape on a collision course that could change the planet forever.

General Info
ENCODER: Kobe
Source Video: New Proper BD Disk Thanks russians!
Source Audio: CM8's 5.1 Thanks!
Video
ID : 0
Format : MPEG-4 Visual
Format profile : Advanced [email protected]
Format settings, BVOP : 1
Format settings, QPel : No
Format settings, GMC : No warppoints
Format settings, Matrix : Default (H.263)
Muxing mode : Packed bitstream
Codec ID : XVID
Codec ID/Hint : XviD
Duration : 1h 57mn
Bit rate : 2 457 Kbps
Width : 1 280 pixels
Height : 544 pixels
Display aspect ratio : 2.35:1
Frame rate : 23.976 fps
Color space : YUV
Chroma subsampling : 4:2:0
Bit depth : 8 bits
Scan type : Progressive
Compression mode : Lossy
Bits/(Pixel*Frame) : 0.147
Stream size : 2.01 GiB (84%)
Writing library : XviD 1.2.1 (UTC 2008-12-04)
Audio
ID : 1
Format : AC-3
Format/Info : Audio Coding 3
Mode extension : CM (complete main)
Codec ID : 2000
Duration : 1h 57mn
Bit rate mode : Constant
Bit rate : 448 Kbps
Channel(s) : 6 channels
Channel positions : Front: L C R, Side: L R, LFE
Sampling rate : 48.0 KHz
Bit depth : 16 bits
Compression mode : Lossy
Stream size : 375 MiB (15%)
Alignment : Split accross interleaves
Interleave, duration : 42 ms (1.00 video frame)
Interleave, preload duration : 500 ms










http://www.filefactory.com/file/c4a4...G_...part1.rar
http://www.filefactory.com/file/c4a4...G_...part2.rar
http://www.filefactory.com/file/c4a4...G_...part3.rar
http://www.filefactory.com/file/c4a4...G_...part5.rar
http://www.filefactory.com/file/c4a4...G_...part6.rar
http://www.filefactory.com/file/c4a4...G_...part4.rar
http://www.filefactory.com/file/c4a4...G_...part7.rar



Bitshare

http://bitshare.com/files/ubx3dkjs/m...part3.rar.html
http://bitshare.com/files/6g1lzsg6/m...part6.rar.html
http://bitshare.com/files/sjxa3mfn/m...part5.rar.html
http://bitshare.com/files/vwqmpcbt/m...part4.rar.html
http://bitshare.com/files/t4lfyydp/m...part2.rar.html
http://bitshare.com/files/87lam5po/m...part1.rar.html
http://bitshare.com/files/vl58ra10/m...part7.rar.html



Freakshare

http://freakshare.com/files/7ugzu4pu...part7.rar.html
http://freakshare.com/files/b4mzzsu4...part1.rar.html
http://freakshare.com/files/fasfot9e...part3.rar.html
http://freakshare.com/files/k06tvs4p...part4.rar.html
http://freakshare.com/files/6klhi6ki...part2.rar.html
http://freakshare.com/files/lp24qa5z...part5.rar.html