Mommy's Little Monster 2012 DvdRip UnKnOwN




http://www.imdb.com/title/tt0204676/




A young teenage girl is hired by a strange couple to watch their baby for the night. What the babysitter doesn't know is how strange the couple is, and exactly what kind of baby she is watching ove

Format : MPEG-4 Visual
Format profile : Advanced [email protected]
Format settings, BVOP : Yes
Format settings, QPel : No
Format settings, GMC : No warppoints
Format settings, Matrix : Custom
Codec ID : XVID
Codec ID/Hint : XviD
Duration : 1h 20mn
Bit rate : 1080Kbps
Width : 720ixels
Height : 480pixels
Display aspect ratio : 1:33
Frame rate : 23.997fps
Color space : YUV
Chroma subsampling : 4:2:0
Bit depth : 8 bits
Scan type : Progressive
Bits/(Pixel*Frame) : 0.234
Stream size : 892 MiB (86%)
Writing library : XviD 1.2.1 (UTC 2008-12-04)
Audio
ID : 1
Format : AC3
Format/Info : Audio Coding 3
Mode extension : CM (complete main)
Codec ID : 2000
Duration : 1h 20mn
Bit rate mode : Constant
Bit rate : 192kbps
Channel(s) : 2channels
Channel positions : Front: L R
Sampling rate : 48.0 KHz
Bit depth : 16 bits
Stream size : 302 MiB
Alignment : Aligned on interleaves
Interleave, duration : 42 ms (1.00 video frame)
Interleave, preload duration : 512 ms









Buy Premium Account And DOWNLOAD Without Any Limit


http://www.filefactory.com/file/c4ee....mkv.part2.rar
http://www.filefactory.com/file/c4ee....mkv.part3.rar
http://www.filefactory.com/file/c4ee....mkv.part1.rar





Buy Premium Account And DOWNLOAD Without Any Limit


http://ul.to/4pc0aifa/mlmUnKnOwN.mkv.part3.rar
http://ul.to/m3stzxbl/mlmUnKnOwN.mkv.part1.rar
http://ul.to/zjxs2uvl/mlmUnKnOwN.mkv.part2.rar



Freakshare

http://freakshare.com/files/wlg7utbo...part1.rar.html
http://freakshare.com/files/xt9tu4zv...part3.rar.html
http://freakshare.com/files/c01g9lhb...part2.rar.html



Bitshare
Buy Premium Account And DOWNLOAD Without Any Limit


http://bitshare.com/files/i13av816/m...part2.rar.html
http://bitshare.com/files/bysd0efq/m...part3.rar.html
http://bitshare.com/files/qgu3tx5w/m...part1.rar.html