Lockout 2012 TS XviD-26k

Lockout 2012 TS XVID | 1.37 GB

Lockout 2012 TS XviD-26k

http://www.imdb.com/title/tt1592525/

Plot:
A man wrongly convicted of conspiracy to commit espionage against the U.S. is offered
his freedom if he can rescue the president's daughter from an outer space prison taken
over by violent inmates.

Sources - VIDEO: UnKnOwN....Thanks :P
AUDIO: INSPiRAL...Thanks :P

Format : AVI
Format/Info : Audio Video Interleave
File size : 1.37 GiB
Duration : 1h 29mn
Overall bit rate : 2 190 Kbps
Writing library : VirtualDub build 32839/release

Video
ID : 0
Format : MPEG-4 Visual
Format profile : Advanced [email protected]
Format settings, BVOP : 2
Format settings, QPel : No
Format settings, GMC : No warppoints
Format settings, Matrix : Default (H.263)
Muxing mode : Packed bitstream
Codec ID : XVID
Codec ID/Hint : XviD
Duration : 1h 29mn
Bit rate : 2 050 Kbps
Width : 700 pixels
Height : 304 pixels
Display aspect ratio : 2.35:1
Frame rate : 29.644 fps
Color space : YUV
Chroma subsampling : 4:2:0
Bit depth : 8 bits
Scan type : Progressive
Compression mode : Lossy
Bits/(Pixel*Frame) : 0.325
Stream size : 1.28 GiB (94%)
Writing library : XviD 1.2.1 (UTC 2008-12-04)

Audio
ID : 1
Format : MPEG Audio
Format version : Version 1
Format profile : Layer 3
Mode : Joint stereo
Mode extension : MS Stereo
Codec ID : 55
Codec ID/Hint : MP3
Duration : 1h 29mn
Bit rate mode : Constant
Bit rate : 128 Kbps
Channel(s) : 2 channels
Sampling rate : 44.1 KHz
Compression mode : Lossy
Stream size : 82.1 MiB (6%)
Alignment : Split accross interleaves
Interleave, duration : 34 ms (1.00 video frame)
Langral

TraiLer


http://www.youtube.com/watch?v=pmAbEgayExs



=====

SCREENSHOTS :




Download Links :


Say "thanks" in Reply If you like my post, Please!



http://extabit.com/file/27b5z11x4095...-26k.part3.rar
http://extabit.com/file/27b5z11wznms...-26k.part2.rar
http://extabit.com/file/27b5z11wzmxn...-26k.part1.rar




http://rapidgator.net/file/10157728/...part3.rar.html
http://rapidgator.net/file/10157661/...part2.rar.html
http://rapidgator.net/file/10157519/...part1.rar.html




http://letitbit.net/download/27126.2...part3.rar.html
http://letitbit.net/download/29181.2...part2.rar.html
http://letitbit.net/download/72733.7...part1.rar.html