Battleship 2012 720P CAM READNFO XviD-26k

Battleship 2012 720P CAM READNFO XviD-26k | 2.41 GB

Battleship.2012.720P.CAM.READNFO.XviD-26k

Imdb:
http://www.imdb.com/title/tt1440129/

Plot:
A fleet of ships is forced to do battle with an armada of unknown origins in order

to discover and thwart their destructive goals.

Sources:
video-THNXS TO SPANISH GUYS FOR THIS ;)
audio-26k
subs-eng for the first parts of the movie!!!

Notes:
Readnfo, well the video is very dark!! so be warned... other than that great video

and motion on the action scenes.. audio is own ... thank to the spanish guyz for the

source files as thier were 2 diffrent version out :D..also hear line very soon ;)

Greetz:
Xtreme

Encode|FYA|ILLUMANTI|CM8|RX|VISION|HDSCENE|NIGHTMAREZ|xTriLL|DTRG|CRYS|REMIXHD|BIDA|

RX|REFILL|INSPiRAL|SIC|HOPE|Anonymous|GooN|P76|MIRAGE|ESCA|KoDeKinG

To all the people who have helped me :P you know who you are

Anything to offer email us @: [email protected]

Video
ID : 0
Format : MPEG-4 Visual
Format profile : Advanced [email protected]
Format settings, BVOP : 2
Format settings, QPel : No
Format settings, GMC : No warppoints
Format settings, Matrix : Default (H.263)
Muxing mode : Packed bitstream
Codec ID : XVID
Codec ID/Hint : XviD
Duration : 2h 0mn
Bit rate : 2 595 Kbps
Width : 1 280 pixels
Height : 484 pixels
Display aspect ratio : 2.645
Frame rate : 25.000 fps
Color space : YUV
Chroma subsampling : 4:2:0
Bit depth : 8 bits
Scan type : Progressive
Compression mode : Lossy
Bits/(Pixel*Frame) : 0.168
Stream size : 2.19 GiB (94%)
Writing library : XviD 64

Audio
ID : 1
Format : MPEG Audio
Format version : Version 1
Format profile : Layer 3
Mode : Joint stereo
Mode extension : MS Stereo
Codec ID : 55
Codec ID/Hint : MP3
Duration : 2h 0mn
Bit rate mode : Constant
Bit rate : 160 Kbps
Channel(s) : 2 channels
Sampling rate : 44.1 KHz
Compression mode : Lossy
Delay relative to video : 7s 612ms
Stream size : 138 MiB (6%)
Alignment : Split accross interleaves
Interleave, duration : 13110 ms (327.76 video frames)
Writing library : LAME3.98r
Encoding settings : -m j -V 4 -q 3 -lowpass 17.5 -b 160

TraiLer


http://www.youtube.com/watch?v=KsieadPPvJE



=====

SCREENSHOTS :




Download Links :


Say "thanks" in Reply If you like my post, Please!



http://extabit.com/file/27b5z11wwj9g...-26k.part3.rar
http://extabit.com/file/27b5z11smbrn...-26k.part1.rar
http://extabit.com/file/27b5z11smyla...-26k.part2.rar




http://rapidgator.net/file/10155770/...part3.rar.html
http://rapidgator.net/file/10155523/...part1.rar.html
http://rapidgator.net/file/10155522/...part2.rar.html




http://letitbit.net/download/41107.4...part3.rar.html
http://letitbit.net/download/57178.5...part1.rar.html
http://letitbit.net/download/73950.7...part2.rar.html