[00]Elevator 2012 R5 LiNE XViD-nCODE



http://www.imdb.com/title/tt2139845/



Elevator.2012.R5.LiNE.XViD-nCODE

Format : AVI
Format/Info : Audio Video Interleave
File size : 701 MiB
Duration : 1h 20mn
Overall bit rate : 1 215 Kbps

Video
ID : 0
Format : MPEG-4 Visual
Format profile : Advanced [email protected]
Format settings, BVOP : 2
Format settings, QPel : No
Format settings, GMC : No warppoints
Format settings, Matrix : Default (H.263)
Codec ID : XVID
Codec ID/Hint : XviD
Duration : 1h 20mn
Bit rate : 1 049 Kbps
Width : 656 pixels
Height : 272 pixels
Display aspect ratio : 2.40:1
Frame rate : 25.000 fps
Color space : YUV
Chroma subsampling : 4:2:0
Bit depth : 8 bits
Scan type : Progressive
Compression mode : Lossy
Bits/(Pixel*Frame) : 0.235
Stream size : 605 MiB (86%)
Writing library : XviD 1.2.1 (UTC 2008-12-04)

Audio
ID : 1
Format : MPEG Audio
Format version : Version 1
Format profile : Layer 3
Mode : Joint stereo
Mode extension : MS Stereo
Codec ID : 55
Codec ID/Hint : MP3
Duration : 1h 20mn
Bit rate mode : Constant
Bit rate : 160 Kbps
Channel(s) : 2 channels
Sampling rate : 48.0 KHz
Compression mode : Lossy
Stream size : 92.3 MiB (13%)
Alignment : Aligned on interleaves
Interleave, duration : 160 ms (4.00 video frames)
Interleave, preload duration : 216 ms
Title : ~ [email protected] Warez-bb ~
Writing library : LAME3.99r
Encoding settings : -m j -V 4 -q 2 -lowpass 17.5 -b 160

















Buy Premium Account And DOWNLOAD Without Any Limit


http://ul.to/g9d92kkk/mg5.E.2012.R5.LiNE.XViD_nCODE.avi




Buy Premium Account And DOWNLOAD Without Any Limit


http://www.filefactory.com/file/c44c...XViD_nCODE.avi




[/00]