[00]Night Of The Living Dead Re Animation 2012 BRRip AC3 XviD ? ANALOG




http://www.imdb.com/title/tt1879012/



Title: Night of the Living Dead: Origins 3D
Year: 2011
Genre: Animation, Horror
Director: Zebediah De Soto
Cast: Danielle Harris, Tom Sizemore, Alona Tal

Video
ID : 0
Format : MPEG-4 Visual
Format profile : Advanced [email protected]
Format settings, BVOP : 2
Format settings, QPel : No
Format settings, GMC : No warppoints
Format settings, Matrix : Default (H.263)
Muxing mode : Packed bitstream
Codec ID : XVID
Codec ID/Hint : XviD
Duration : 1h 32mn
Bit rate : 1 835 Kbps
Width : 688 pixels
Height : 386 pixels
Display aspect ratio : 16:9
Frame rate : 23.976 fps
Color space : YUV
Chroma subsampling : 4:2:0
Bit depth : 8 bits
Scan type : Progressive
Compression mode : Lossy
Bits/(Pixel*Frame) : 0.288
Stream size : 1.18 GiB (82%)
Writing library : XviD 58

Audio
ID : 1
Format : AC-3
Format/Info : Audio Coding 3
Mode extension : CM (complete main)
Codec ID : 2000
Duration : 1h 32mn
Bit rate mode : Constant
Bit rate : 384 Kbps
Channel(s) : 6 channels
Channel positions : Front: L C R, Side: L R, LFE
Sampling rate : 48.0 KHz
Bit depth : 16 bits
Compression mode : Lossy
Stream size : 253 MiB (17%)
Alignment : Aligned on interleaves
Interleave, duration : 42 ms (1.00 video frame)
Interleave, preload duration : 512 ms

















Buy Premium Account And DOWNLOAD Without Any Limit


http://ul.to/78n9jsa9/mg5.n.O.T.L.D....OG.part5_..rar
http://ul.to/jgpdyjd1/mg5.n.O.T.L.D....OG.part3_..rar
http://ul.to/m6lq1wsw/mg5.n.O.T.L.D....OG.part2_..rar
http://ul.to/yagtq8vo/mg5.n.O.T.L.D....OG.part4_..rar
http://ul.to/xkgyzvjm/mg5.n.O.T.L.D....OG.part1_..rar





Buy Premium Account And DOWNLOAD Without Any Limit


http://www.filefactory.com/file/1jxq...OG.part5_..rar
http://www.filefactory.com/file/6hkv...OG.part4_..rar
http://www.filefactory.com/file/1z0x...OG.part3_..rar
http://www.filefactory.com/file/6pn0...OG.part2_..rar
http://www.filefactory.com/file/2496...OG.part1_..rar





[/00]