[00]The Lion of Judah 2011 BDRip XviD-SPRiNTER




http://www.imdb.com/title/tt1212022/





Title: The Lion of Judah
Year: 2011
Genre: Animation
Rating: 3.2 (123 Votes)
Runtime: 87 min
Director: Deryck Broom
Cast: Michael Madsen, Ernest Borgnine, Leon Clingman

Format : AVI
Format/Info : Audio Video Interleave
File size : 697 MiB
Duration : 1h 27mn
Overall bit rate mode : Variable
Overall bit rate : 1 117 Kbps
Writing application : VirtualDubMod 1.5.10.2 (build 2540/release)
Writing library : VirtualDubMod build 2540/release

Video
ID : 0
Format : MPEG-4 Visual
Format profile : Advanced [email protected]
Format settings, BVOP : 2
Format settings, QPel : No
Format settings, GMC : No warppoints
Format settings, Matrix : Default (H.263)
Codec ID : XVID
Codec ID/Hint : XviD
Duration : 1h 27mn
Bit rate : 977 Kbps
Width : 624 pixels
Height : 352 pixels
Display aspect ratio : 16:9
Frame rate : 23.976 fps
Color space : YUV
Chroma subsampling : 4:2:0
Bit depth : 8 bits
Scan type : Progressive
Compression mode : Lossy
Bits/(Pixel*Frame) : 0.186
Stream size : 610 MiB (87%)
Writing library : XviD 61

Audio
ID : 1
Format : MPEG Audio
Format version : Version 1
Format profile : Layer 3
Mode : Joint stereo
Mode extension : MS Stereo
Codec ID : 55
Codec ID/Hint : MP3
Duration : 1h 27mn
Bit rate mode : Variable
Bit rate : 128 Kbps
Channel(s) : 2 channels
Sampling rate : 48.0 KHz
Compression mode : Lossy
Stream size : 79.3 MiB (11%)
Alignment : Aligned on interleaves
Interleave, duration : 24 ms (0.58 video frame)
Interleave, preload duration : 145 ms














Freakshare

http://freakshare.com/files/kmnn5yvv...part3.rar.html
http://freakshare.com/files/09sotmy2...part1.rar.html
http://freakshare.com/files/tnoe05bk...part2.rar.html



Bitshare
Buy Premium Account And DOWNLOAD Without Any Limit


http://bitshare.com/files/ihz2zdvx/m...part2.rar.html
http://bitshare.com/files/yeb0u0z6/m...part3.rar.html
http://bitshare.com/files/5s42sfcz/m...part1.rar.html




Buy Premium Account And DOWNLOAD Without Any Limit


http://ul.to/60gvqavo/mg5-tloj-xvid_..part1.rar
http://ul.to/ij2bgl8s/mg5.-tloj-xvid_..part2.rar
http://ul.to/7uw5gt5b/mg5.-tloj-xvid_..part3.rar





Buy Premium Account And DOWNLOAD Without Any Limit


http://www.filefactory.com/file/3jex...id_..part2.rar
http://www.filefactory.com/file/7l21...id_..part3.rar
http://www.filefactory.com/file/3e9w...id_..part1.rar





[/00]