Enter Nowhere 2011 DvDRip XviD Ac3 Feel-Free



Imdb

http://www.imdb.com/title/tt1631707/


Info

Format : AVI
Format/Info : Audio Video Interleave
File size : 945 MiB
Duration : 1h 29mn
Overall bit rate : 1 477 Kbps

Video
ID : 0
Format : MPEG-4 Visual
Format profile : Advanced [email protected]
Format settings, BVOP : 1
Format settings, QPel : No
Format settings, GMC : No warppoints
Format settings, Matrix : Default (H.263)
Codec ID : XVID
Codec ID/Hint : XviD
Duration : 1h 29mn
Bit rate : 1 019 Kbps
Width : 640 pixels
Height : 272 pixels
Display aspect ratio : 2.35:1
Frame rate : 23.976 fps
Color space : YUV
Chroma subsampling : 4:2:0
Bit depth : 8 bits
Scan type : Progressive
Compression mode : Lossy
Bits/(Pixel*Frame) : 0.244
Stream size : 652 MiB (69%)
Writing library : XviD 1.2.1 (UTC 2008-12-04)

Audio
ID : 1
Format : AC-3
Format/Info : Audio Coding 3
Mode extension : CM (complete main)
Codec ID : 2000
Duration : 1h 29mn
Bit rate mode : Constant
Bit rate : 448 Kbps
Channel(s) : 6 channels
Channel positions : Front: L C R, Side: L R, LFE
Sampling rate : 48.0 KHz
Bit depth : 16 bits
Compression mode : Lossy
Stream size : 287 MiB (30%)
Alignment : Aligned on interleaves
Interleave, duration : 42 ms (1.00 video frame)
Interleave, preload duration : 512 ms


Plot:
Three strangers arrive one by one at a mysterious cabin in the middle of nowhere only to learn they've been brought together for a reason.


Screenshots







Download




Filefactory

http://www.filefactory.com/file/71s3..._Feel-Free.avi


Freakshare

http://freakshare.com/files/wggegyyt...-Free.avi.html


Bitshare



http://bitshare.com/files/uro6r8h1/m...-Free.avi.html