THIS MEANS WAR 2012 TS XVID-SIC



http://www.imdb.com/title/tt1596350/




This Means War (2012)
Genre: Action | Comedy | Romance
Directed By: McG
Cast: Reese Witherspoon, Chris Pine, Tom Hardy
MPAA Rate: PG-13
Storyline: Two top CIA operatives wage an epic battle against one another after they discover they are dating the same woman.

Video
ID : 0
Format : MPEG-4 Visual
Format profile : Advanced [email protected]
Format settings, BVOP : 2
Format settings, QPel : No
Format settings, GMC : No warppoints
Format settings, Matrix : Default (H.263)
Muxing mode : Packed bitstream
Codec ID : XVID
Codec ID/Hint : XviD
Duration : 1h 31mn
Bit rate : 937 Kbps
Width : 680 pixels
Height : 252 pixels
Display aspect ratio : 2.698
Frame rate : 25.000 fps
Color space : YUV
Chroma subsampling : 4:2:0
Bit depth : 8 bits
Scan type : Progressive
Compression mode : Lossy
Bits/(Pixel*Frame) : 0.219
Stream size : 613 MiB (87%)
Writing library : XviD 64

Audio
ID : 1
Format : MPEG Audio
Format version : Version 1
Format profile : Layer 3
Mode : Joint stereo
Mode extension : MS Stereo
Codec ID : 55
Codec ID/Hint : MP3
Duration : 1h 31mn
Bit rate mode : Constant
Bit rate : 128 Kbps
Channel(s) : 2 channels
Sampling rate : 44.1 KHz
Compression mode : Lossy
Stream size : 83.7 MiB (12%)
Alignment : Split accross interleaves
Interleave, duration : 40 ms (1.00 video frame)













http://www.filefactory.com/file/c3fa...s.u21448...rar




Freakshare

http://freakshare.com/files/y42cwgkg...448...rar.html


Bitshare

http://bitshare.com/files/72q57z5f/t...448...rar.html