Margin.Call.2011.DVDRip.XviD.__CW.avi



http://www.imdb.com/title/tt1615147/




General
Complete name: Margin.Call.2011.DVDRip.XviD.__CW.avi
Format : AVI
Format/Info: Audio Video Interleave
File size: 700 MiB
Duration : 1h 47mn
Overall bit rate mode: Variable
Overall bit rate : 913 Kbps
Writing application: VirtualDubMod 1.5.4.1 (build 2178/release)
Writing library: VirtualDubMod build 2178/release

Video
ID : 0
Format : MPEG-4 Visual
Format profile : Advanced [email protected]
Format settings, BVOP: 1
Format settings, QPel: No
Format settings, GMC : No warppoints
Format settings, Matrix: Custom
Codec ID : XVID
Codec ID/Hint: XviD
Duration : 1h 47mn
Bit rate : 789 Kbps
Width: 624 pixels
Height : 352 pixels
Display aspect ratio : 16:9
Frame rate : 23.976 fps
Color space: YUV
Chroma subsampling : 4:2:0
Bit depth: 8 bits
Scan type: Progressive
Compression mode : Lossy
Bits/(Pixel*Frame) : 0.150
Stream size: 604 MiB (86%)
Writing library: XviD 1.2.1 (UTC 2008-12-04)

Audio
ID : 1
Format : MPEG Audio
Format version : Version 1
Format profile : Layer 3
Mode : Joint stereo
Mode extension : MS Stereo
Codec ID : 55
Codec ID/Hint: MP3
Duration : 1h 47mn
Bit rate mode: Variable
Bit rate : 112 Kbps
Nominal bit rate : 128 Kbps
Channel(s) : 2 channels
Sampling rate: 48.0 KHz
Compression mode : Lossy
Stream size: 85.4 MiB (12%)
Alignment: Aligned on interleaves
Interleave, duration : 24 ms (0.58 video frame)
Interleave, preload duration : 165 ms
Writing library: LAME3.98r
Encoding settings: -m j -V 4 -q 2 -lowpass 17 --abr 128
Language : English











Uploaded.to

http://ul.to/fdnmqztc/mc2011.DVDRip.XviD.__..part1.rar
http://ul.to/j96vnhuc/mc2011.DVDRip.XviD.__..part2.rar
http://ul.to/mjp7550n/mc2011.DVDRip.XviD.__..part3.rar



Freakshare

http://freakshare.com/files/t3it8ggz...part2.rar.html
http://freakshare.com/files/yl2phq14...part1.rar.html
http://freakshare.com/files/g00xrzie...part3.rar.html






http://www.filefactory.com/file/c300....avi.part2.rar
http://www.filefactory.com/file/c300....avi.part3.rar
http://www.filefactory.com/file/c300....avi.part1.rar