The Girl with the Dragon Tattoo (2011) DVDRip XViD-VoMi [CENTER] INFO: Code: General Complete name : The.Girl.with.the.Dragon.Tattoo.2011.DVDRip.XViD-VoMi.avi Format : AVI Format/Info : Audio Video Interleave File size : 1.37 GiB Overall bit rate : 919 Kbps Video ID : 0 Format : MPEG-4 Visual Format profile : Advanced [email protected] Format settings, BVOP : Yes Format settings, QPel : No Format settings, GMC : No warppoints Format settings, Matrix : Default (MPEG) Codec ID : XVID Codec ID/Hint : XviD Duration : 1h 46mn Bit rate : 794 Kbps Width : 623 pixels Height : 264 pixels Display aspect ratio : 2.35:1 Frame rate : 25.000 fps Original frame rate : 23.976 fps Color space : YUV Chroma subsampling : 4:2:0 Bit depth : 8 bits Scan type : Progressive Bits/(Pixel*Frame) : 0.182 Stream size : 603 MiB (86%) Writing library : XviD 1.2.1 (UTC 2008-12-04) Audio ID : 1 Sherlock Holmes: A Game of Shadow (2011) DVDRip XViD-NiCEGUYS [CENTER] INFO: Code: General Complete name : Sherlock.Holmes:A.Game.of.Shadows.2011.DVDRip.XViD-NiCEGUYS.avi Format : AVI Format/Info : Audio Video Interleave File size : 1.37 GiB Overall bit rate : 919 Kbps Video ID : 0 Format : MPEG-4 Visual Format profile : Advanced [email protected] Format settings, BVOP : Yes Format settings, QPel : No Format settings, GMC : No warppoints Format settings, Matrix : Default (MPEG) Codec ID : XVID Codec ID/Hint : XviD Duration : 1h 46mn Bit rate : 794 Kbps Width : 623 pixels Height : 264 pixels Display aspect ratio : 2.35:1 Frame rate : 25.000 fps Original frame rate : 23.976 fps Color space : YUV Chroma subsampling : 4:2:0 Bit depth : 8 bits Scan type : Progressive Bits/(Pixel*Frame) : 0.182 Stream size : 603 MiB (86%) Writing library : XviD 1.2.1 (UTC 2008-12-04) Audio ID : 1 Format : MPEG Audio Format version : Version 1 Format profile : Layer 3 Codec ID : 55 Codec ID/Hint : MP3 Duration : 1h 46mn Bit rate mode : Constant Bit rate : 112 Kbps Channel(s) : 2 channels Sampling rate : 48.0 KHz Stream size : 85.1 MiB (12%) Alignment : Split accross interleaves Interleave, duration : 24 ms (0.60 video frame)
Read more at collection by xuanxasa (Daily Update) ''click link'' http:/// Buy a premium extabit.com to download file with fast speed Premium referral link: http://extabit.com/premium.jsp?aff=edc15bba13b8f9d3 Written answers for you or me thanks
http://extabit.com/file/27auy0fma2b70/Sherlock Holmes 2 A Game of Shadows 2011 TS XVID AC3 - .part01.rar http://extabit.com/file/27auy0fma2b7g/Sherlock Holmes 2 A Game of Shadows 2011 TS XVID AC3 - .part02.rar letitbit Mirrors http://letitbit.net/download/21324.2...art01.rar.html http://letitbit.net/download/91945.9...art02.rar.html shareflare Mirrors http://shareflare.net/download/27736...art01.rar.html http://shareflare.net/download/94211...art02.rar.html rapidgator Mirrors http://rapidgator.net/file/2247010/S...art01.rar.html http://rapidgator.net/file/2246933/S...art02.rar.html