Group Sex (2010)





http://www.imdb.com/title/tt1193096/



Director: Lawrence Trilling
Genre: Comedy
Format: AVI
Format/Info: Audio Video Interleave
File size: 701 MiB
Duration: 1h 32mn
Overall bit rate: 1 062 Kbps
Writing application: VirtualDubMod 1.5.10.2 (build 2540/release)
Writing library: VirtualDubMod build 2540/release

Video
--------------------------
ID: 0
Format: MPEG-4 Visual
Format profile: Advanced [email protected]
Format settings, BVOP: Yes
Format settings, QPel: No
Format settings, GMC: No warppoints
Format settings, Matrix: Default (H.263)
Codec ID: XVID
Codec ID/Hint: XviD
Duration: 1h 32mn
Bit rate: 921 Kbps
Width: 608 pixels
Height: 320 pixels
Display aspect ratio: 1.900
Frame rate: 23.976 fps
Color space: YUV
Chroma subsampling: 4:2:0
Bit depth: 8 bits
Scan type: Progressive
Bits/(Pixel*Frame): 0.197
Stream size: 608 MiB (87%)
Writing library: XviD 1.1.2 (UTC 2006-11-01)

Audio
--------------------------
ID: 1
Format: MPEG Audio
Format version: Version 1
Format profile: Layer 3
Codec ID: 55
Codec ID/Hint: MP3
Duration: 1h 32mn
Bit rate mode: Variable
Bit rate: 129 Kbps
Minimum bit rate: 128 Kbps
Channel(s): 2 channels
Sampling rate: 48.0 KHz
Stream size: 85.0 MiB (12%)
Alignment: Aligned on interleaves
Interleave, duration: 24 ms (0.58 video frame)
Interleave, preload duration: 205 ms
Writing library: LAME3.95
Encoding settings: -m s -V 6 -q 3 -lowpass 16 --vbr-old -b 128



Herman has a weakness for strip clubs. Donny has a thing for condiments and Tiffany is a newly celibate martial artist. These are Andy's new friends after he unsuspectingly follows his dream girl into a sexual addiction recovery group. At first this seems like the best possible news! However, Andy's professional and personal life begins to unravel as he deepens his ties to this lovable, but damaged group.







http://www.megaupload.com/?d=N3PAC0DZ
http://www.megaupload.com/?d=01Y24UN4
http://www.megaupload.com/?d=JF43F7JK
http://www.megaupload.com/?d=ZJUM7PSH

Mirror :

http://www.fileserve.com/file/ms5jb5p
http://www.fileserve.com/file/NPuMh37
http://www.fileserve.com/file/Y5cdyCh
http://www.fileserve.com/file/EfAug8s

http://www.storage.to/get/jG59HuDz/GS.part1.rar
http://www.storage.to/get/ceHKHN11/GS.part2.rar
http://www.storage.to/get/XPTuwNoP/GS.part3.rar
http://www.storage.to/get/W5OyPJOw/GS.part4.rar