Subcategory: x264
Resolution: 720p
Size: 710.70 MB (745,218,543 bytes)


Unique ID : 190625680972413589799665189585719237851 (0x8F692BB4011B1AFE8BA90F81A9519CDB)
Complete name : D: iTunes TV Shows The Office The.Office.S08E19.720p.WEB-DL.DD5.1.H.264-KiNGS The.Office.S08E19.720p.WEB-DL.DD5.1.H.264-KiNGS.mkv
Format : Matroska
Format version : Version 2
File size : 711 MiB
Duration : 22mn 4s
Overall bit rate : 4 502 Kbps
Encoded date : UTC 2012-03-16 09:09:50
Writing application : mkvmerge v5.4.0 ( Piper ) built on Mar 10 2012 13:34:39
Writing library : libebml v1.2.3 libmatroska v1.3.0
Format : AVC
Format/Info : Advanced Video Codec
Format profile : High L3.1
Format settings, CABAC : No
Format settings, ReFrames : 2 frames
Codec ID : VMPEG4/ISO/AVC
Duration : 22mn 4s
Bit rate : 4 029 Kbps
Width : 1 280 pixels
Height : 720 pixels
Display aspect ratio : 16:9
Frame rate : 23.976 fps
Color space : YUV
Chroma subsampling : 4:2:0
Bit depth : 8 bits
Scan type : Progressive
Bits/(Pixel Frame) : 0.182
Stream size : 636 MiB (89%)
Language : English
Default : Yes
Forced : No
Color primaries : BT.709-5, BT.1361, IEC 61966-2-4, SMPTE RP177
Transfer characteristics : BT.709-5, BT.1361
Matrix coefficients : BT.709-5, BT.1361, IEC 61966-2-4 709, SMPTE RP177
Format : AC-3
Format/Info : Audio Coding 3
Mode extension : CM (complete main)
Codec ID : AAC3
Duration : 22mn 4s
Bit rate mode : Constant
Bit rate : 384 Kbps
Channel(s) : 6 channels
Channel positions : Front: L C R, Side: L R, LFE
Sampling rate : 48.0 KHz
Bit depth : 16 bits
Compression mode : Lossy
Stream size : 60.6 MiB (9%)
Language : English
Default : Yes
Forced : No
Screenshots http://img192.imageshack.us/img192/4766/73556188.png
http://img191.imageshack.us/img191/9625/25450204.png
Informations Category: TV


http://rapidgator.net/file/820111/Th...KiNGS.rar.html



http://turbobit.net/6x3yl6vp8zd3/The...KiNGS.rar.html