Category: TV
Subcategory: x264
Resolution: 720p
Size: 1.32 GB (1,415,211,226 bytes)


Unique ID : 215980273324718286318037251958077475078 (0xA27C499ECC0ED0AF92414DC3735D4906)
Complete name : D: iTunes TV Shows The Secret Circle The.Secret.Circle.S01E16.720p.WEB-DL.DD5.1.H.264-KiNGS The.Secret.Circle.S01E16.720p.WEB-DL.DD5.1.H.264-KiNGS.mkv
Format : Matroska
Format version : Version 2
File size : 1.32 GiB
Duration : 42mn 34s
Overall bit rate : 4 432 Kbps
Encoded date : UTC 2012-03-17 04:56:01
Writing application : mkvmerge v5.4.0 ( Piper ) built on Mar 10 2012 13:34:39
Writing library : libebml v1.2.3 libmatroska v1.3.0
Format : AVC
Format/Info : Advanced Video Codec
Format profile : High L3.1
Format settings, CABAC : No
Format settings, ReFrames : 2 frames
Codec ID : VMPEG4/ISO/AVC
Duration : 42mn 34s
Bit rate : 3 959 Kbps
Width : 1 280 pixels
Height : 720 pixels
Display aspect ratio : 16:9
Frame rate : 23.976 fps
Color space : YUV
Chroma subsampling : 4:2:0
Bit depth : 8 bits
Scan type : Progressive
Bits/(Pixel Frame) : 0.179
Stream size : 1.18 GiB (89%)
Language : English
Default : Yes
Forced : No
Color primaries : BT.709-5, BT.1361, IEC 61966-2-4, SMPTE RP177
Transfer characteristics : BT.709-5, BT.1361
Matrix coefficients : BT.709-5, BT.1361, IEC 61966-2-4 709, SMPTE RP177
Format : AC-3
Format/Info : Audio Coding 3
Mode extension : CM (complete main)
Codec ID : AAC3
Duration : 42mn 34s
Bit rate mode : Constant
Bit rate : 384 Kbps
Channel(s) : 6 channels
Channel positions : Front: L C R, Side: L R, LFE
Sampling rate : 48.0 KHz
Bit depth : 16 bits
Compression mode : Lossy
Stream size : 117 MiB (9%)
Language : English
Default : Yes
Forced : No
Screenshots http://img3.imageshack.us/img3/4158/37525696.png
http://img594.imageshack.us/img594/4836/15521995.png
Informations Category: TV


http://rapidgator.net/file/821026/Th...KiNGS.rar.html



http://turbobit.net/p8yt3m9nzo26/The...KiNGS.rar.html