The Girl With The Dragon Tattoo 2011 720p BRRip XviD AC3-26k

http://www.imdb.com/title/tt1568346/

Plot:
Journalist Mikael Blomkvist is aided in his search for a woman who has been missing for forty years
by Lisbeth Salander, a young computer hacker.

Sources - the.girl.with.the.dragon.tattoo.2011.1080p.bluray.x264-sparks.....Thanks

Format : AVI
Format/Info : Audio Video Interleave
Format profile : OpenDML
File size : 2.39 GiB
Duration : 2h 38mn
Overall bit rate : 2 163 Kbps
Writing library : VirtualDub build 32842/release

Video
ID : 0
Format : MPEG-4 Visual
Format profile : Advanced [email protected]
Format settings, BVOP : 2
Format settings, QPel : No
Format settings, GMC : No warppoints
Format settings, Matrix : Default (H.263)
Codec ID : XVID
Codec ID/Hint : XviD
Duration : 2h 38mn
Bit rate : 1 512 Kbps
Width : 1 280 pixels
Height : 528 pixels
Display aspect ratio : 2.40:1
Frame rate : 23.976 fps
Color space : YUV
Chroma subsampling : 4:2:0
Bit depth : 8 bits
Scan type : Progressive
Compression mode : Lossy
Bits/(Pixel*Frame) : 0.093
Stream size : 1.67 GiB (70%)
Writing library : XviD 1.2.1 (UTC 2008-12-04)

Audio
ID : 1
Format : AC-3
Format/Info : Audio Coding 3
Mode extension : CM (complete main)
Codec ID : 2000
Duration : 2h 38mn
Bit rate mode : Constant
Bit rate : 640 Kbps
Channel(s) : 6 channels
Channel positions : Front: L C R, Side: L R, LFE
Sampling rate : 48.0 KHz
Bit depth : 16 bits
Compression mode : Lossy
Stream size : 724 MiB (30%)
Alignment : Split accross interleaves
Interleave, duration : 42 ms (1.00 video frame)
Interleave, preload duration : 500 ms








DOWNLOAD NOW

http://turbobit.net/h76a27kyqzwr.html
http://turbobit.net/ka9qm5hoqjx4.html
http://turbobit.net/s0586kl3ylm1.html

NO PASS ENJOY