The Muppets 2011 720p BRRip XviD AC3-26k

http://www.imdb.com/title/tt1204342/

Plot:
With the help of three fans, The Muppets must reunite to save their old theater from a greedy oil
tycoon.

Sources - The.Muppets.2011.MULTi.1080p.BluRay.x264-LOST.....Thanks

Format : AVI
Format/Info : Audio Video Interleave
Format profile : OpenDML
File size : 2.62 GiB
Duration : 1h 42mn
Overall bit rate : 3 654 Kbps
Writing library : VirtualDub build 32839/release

Video
ID : 0
Format : MPEG-4 Visual
Format profile : Advanced [email protected]
Format settings, BVOP : 2
Format settings, QPel : No
Format settings, GMC : No warppoints
Format settings, Matrix : Default (H.263)
Codec ID : XVID
Codec ID/Hint : XviD
Duration : 1h 42mn
Bit rate : 3 003 Kbps
Width : 1 280 pixels
Height : 720 pixels
Display aspect ratio : 16:9
Frame rate : 23.976 fps
Color space : YUV
Chroma subsampling : 4:2:0
Bit depth : 8 bits
Scan type : Progressive
Compression mode : Lossy
Bits/(Pixel*Frame) : 0.136
Stream size : 2.15 GiB (82%)
Writing library : XviD 1.2.1 (UTC 2008-12-04)

Audio
ID : 1
Format : AC-3
Format/Info : Audio Coding 3
Mode extension : CM (complete main)
Codec ID : 2000
Duration : 1h 42mn
Bit rate mode : Constant
Bit rate : 640 Kbps
Channel(s) : 6 channels
Channel positions : Front: L C R, Side: L R, LFE
Sampling rate : 48.0 KHz
Bit depth : 16 bits
Compression mode : Lossy
Stream size : 470 MiB (18%)
Alignment : Split accross interleaves
Interleave, duration : 42 ms (1.00 video frame)
Interleave, preload duration : 500 ms









http://turbobit.net/5axrd7dpvkd4.html
http://turbobit.net/8qaf8efchy2p.html
http://turbobit.net/bn75inxq7hd6.html

no pass enjoy