The.Reunion.2011.BluRay.1080P.DTS.X264-CHD



iMDB :
http://www.imdb.com/title/tt1792543/

Synopsis:
Sam and Leo Cleary have grown up hating each other, and neither likes their juvenile delinquent kid brother, Douglas, to whom they’ve only recently been introduced. The sons share the same father, a womanizing drunk, but all have different mothers. Their father died a rich man and when they’re brought together by their sister Nina to learn which of them will inherit the old man’s fortune, they are handed an unpleasant surprise. A requirement of the will is that the three estranged siblings go into business together as bail bondsmen. Their first job is to bring in a parole violator who has left Leo with a $250,000 debt. Their search will take them into the mountains of Mexico where they encounter a drug lord and uncover a kidnapping plot, masterminded by an embittered entrepreneur that will endanger them all.
- My Upload.
- Working 100%.
- No Password.
- Interchangeable Links.
- 10% Recovery Added.



Fileserve :
http://www.fileserve.com/file/aQkhC3...CHD.part01.rar
http://www.fileserve.com/file/Pr2n3d...CHD.part02.rar
http://www.fileserve.com/file/8cVaeb...CHD.part03.rar
http://www.fileserve.com/file/r9MbQw...CHD.part04.rar
http://www.fileserve.com/file/yHzDq6...CHD.part05.rar
http://www.fileserve.com/file/CSEhp3...CHD.part06.rar
http://www.fileserve.com/file/ut9tNk...CHD.part07.rar
http://www.fileserve.com/file/dxEPQR...CHD.part08.rar
http://www.fileserve.com/file/HuNEJC...CHD.part09.rar
http://www.fileserve.com/file/UnAWph...CHD.part10.rar
http://www.fileserve.com/file/2DqHpm...CHD.part11.rar
http://www.fileserve.com/file/8CuTpk...CHD.part12.rar
http://www.fileserve.com/file/YYWfQn...CHD.part13.rar
http://www.fileserve.com/file/4uVTz6...CHD.part14.rar

Filejungle :
http://www.filejungle.com/f/WTX4pf/T...CHD.part01.rar
http://www.filejungle.com/f/n7WPns/T...CHD.part02.rar
http://www.filejungle.com/f/fMtWCF/T...CHD.part03.rar
http://www.filejungle.com/f/j6T3rk/T...CHD.part04.rar
http://www.filejungle.com/f/FGJN7Y/T...CHD.part05.rar
http://www.filejungle.com/f/8BrD4w/T...CHD.part06.rar
http://www.filejungle.com/f/wedzYG/T...CHD.part07.rar
http://www.filejungle.com/f/DMC79b/T...CHD.part08.rar
http://www.filejungle.com/f/kuqTxm/T...CHD.part09.rar
http://www.filejungle.com/f/UXPGJ2/T...CHD.part10.rar
http://www.filejungle.com/f/cRhXWX/T...CHD.part11.rar
http://www.filejungle.com/f/HYFyys/T...CHD.part12.rar
http://www.filejungle.com/f/BzGq4C/T...CHD.part13.rar
http://www.filejungle.com/f/6yVRq8/T...CHD.part14.rar

Filesonic :
http://www.filesonic.com/file/398668...CHD.part01.rar
http://www.filesonic.com/file/398670...CHD.part02.rar
http://www.filesonic.com/file/398672...CHD.part03.rar
http://www.filesonic.com/file/398673...CHD.part04.rar
http://www.filesonic.com/file/398673...CHD.part05.rar
http://www.filesonic.com/file/398674...CHD.part06.rar
http://www.filesonic.com/file/398674...CHD.part07.rar
http://www.filesonic.com/file/398676...CHD.part08.rar
http://www.filesonic.com/file/398677...CHD.part09.rar
http://www.filesonic.com/file/398677...CHD.part10.rar
http://www.filesonic.com/file/398677...CHD.part11.rar
http://www.filesonic.com/file/398676...CHD.part12.rar
http://www.filesonic.com/file/398677...CHD.part13.rar
http://www.filesonic.com/file/398678...CHD.part14.rar

Crocko :
http://www.crocko.com/90562F41FD8844...CHD.part01.rar
http://www.crocko.com/C6A81C2DC47640...CHD.part02.rar
http://www.crocko.com/6C574A1B2BB742...CHD.part03.rar
http://www.crocko.com/C8792E341A584F...CHD.part04.rar
http://www.crocko.com/5DBAEFE6FF564D...CHD.part05.rar
http://www.crocko.com/632E11FC33AA47...CHD.part06.rar
http://www.crocko.com/E224D6D9B4F246...CHD.part07.rar
http://www.crocko.com/62DF70ACF35140...CHD.part08.rar
http://www.crocko.com/4E5EAB1FF80B40...CHD.part09.rar
http://www.crocko.com/ADC9768C28FF4B...CHD.part10.rar
http://www.crocko.com/B68FC92559C045...CHD.part11.rar
http://www.crocko.com/EF0B2FA8DA4346...CHD.part12.rar
http://www.crocko.com/520FB5A8673541...CHD.part13.rar
http://www.crocko.com/9A4088F58ADE4A...CHD.part14.rar

PLEASE REPLY IF YOU LIKE MY POST!

SCREENSHOT :


NFO :
General
Unique ID : 225914212297031027012097519678582667535 (0xA9F57EA03D24DCBCABBACE1C8317B90F)
Complete name : The.Reunion.2011.BluRay.1080P.DTS.X264-CHD.mkv
Format : Matroska
Format version : Version 2
File size : 7.92 GiB
Duration : 1h 36mn
Overall bit rate : 11.8 Mbps
Encoded date : UTC 2011-11-22 03:00:29
Writing application : mkvmerge v4.0.0 ('The Stars were mine') 编译于 Jun 6 2010 16:18:42
Writing library : libebml v1.0.0 + libmatroska v1.0.0

Video
ID : 1
Format : AVC
Format/Info : Advanced Video Codec
Format profile : [email protected]
Format settings, CABAC : Yes
Format settings, ReFrames : 4 frames
Codec ID : V_MPEG4/ISO/AVC
Duration : 1h 36mn
Bit rate : 10.3 Mbps
Width : 1 920 pixels
Height : 1 032 pixels
Display aspect ratio : 1.860
Frame rate : 23.976 fps
Color space : YUV
Chroma subsampling : 4:2:0
Bit depth : 8 bits
Scan type : Progressive
Bits/(Pixel*Frame) : 0.217
Stream size : 6.75 GiB (85%)
Writing library : x264 core 115 r2008 4c552d8
Encoding settings : cabac=1 / ref=4 / deblock=1:-3:-3 / analyse=0x3:0x113 / me=umh / subme=10 / psy=1 / psy_rd=1.10:0.15 / mixed_ref=1 / me_range=32 / chroma_me=1 / trellis=2 / 8x8dct=1 / cqm=2 / deadzone=21,11 / fast_pskip=0 / chroma_qp_offset=-2 / threads=12 / sliced_threads=0 / nr=0 / decimate=1 / interlaced=0 / bluray_compat=0 / constrained_intra=0 / bframes=6 / b_pyramid=2 / b_adapt=2 / b_bias=0 / direct=3 / weightb=1 / open_gop=0 / weightp=2 / keyint=250 / keyint_min=23 / scenecut=40 / intra_refresh=0 / rc_lookahead=60 / rc=2pass / mbtree=1 / bitrate=10298 / ratetol=1.0 / qcomp=0.60 / qpmin=1 / qpmax=63 / qpstep=4 / cplxblur=20.0 / qblur=0.5 / vbv_maxrate=40000 / vbv_bufsize=30000 / nal_hrd=none / ip_ratio=1.40 / aq=1:0.80
Language : English

Audio
ID : 2
Format : DTS
Format/Info : Digital Theater Systems
Codec ID : A_DTS
Duration : 1h 36mn
Bit rate mode : Constant
Bit rate : 1 510 Kbps
Channel(s) : 6 channels
Channel positions : Front: L C R, Side: L R, LFE
Sampling rate : 48.0 KHz
Bit depth : 24 bits
Compression mode : Lossy
Stream size : 1.01 GiB (13%)
Language : English