The Reunion (2011) - IMDb

Sam and Leo Cleary have grown up hating each other, and neither likes their juvenile delinquent kid brother, Douglas, to whom they’ve only recently been introduced. The sons share the same father, a womanizing drunk, but all have different mothers. Their father died a rich man and when they’re brought together by their sister Nina to learn which of them will inherit the old man’s fortune, they are handed an unpleasant surprise. A requirement of the will is that the three estranged siblings go into business together as bail bondsmen. Their first job is to bring in a parole violator who has left Leo with a $250,000 debt. Their search will take them into the mountains of Mexico where they encounter a drug lord and uncover a kidnapping plot, masterminded by an embittered entrepreneur that will endanger them all.
Wupload :
Get The.Reunion.2011.DVDRip.XVID.AC3.HQ.Hive-CM8.part1.rar on
Get The.Reunion.2011.DVDRip.XVID.AC3.HQ.Hive-CM8.part2.rar on
Get The.Reunion.2011.DVDRip.XVID.AC3.HQ.Hive-CM8.part3.rar on

Fileserve :
Free File Hosting, Online Storage &amp File Upload with FileServe
Free File Hosting, Online Storage &amp File Upload with FileServe
Free File Hosting, Online Storage &amp File Upload with FileServe

Filejungle : - #1 Hosting for Easy & Fast File Storage - #1 Hosting for Easy & Fast File Storage - #1 Hosting for Easy & Fast File Storage

Filesonic :
Download The.Reunion.2011.DVDRip.XVID.AC3.HQ.Hive-CM8.part1.rar for free on
Download The.Reunion.2011.DVDRip.XVID.AC3.HQ.Hive-CM8.part2.rar for free on
Download The.Reunion.2011.DVDRip.XVID.AC3.HQ.Hive-CM8.part3.rar for free on



Complete name : The.Reunion.2011.DVDRip.XVID.AC3.HQ.Hive-CM8.avi
Format : AVI
Format/Info : Audio Video Interleave
File size : 1.51 GiB
Duration : 1h 36mn
Overall bit rate : 2 257 Kbps
Writing application : Nandub v1.0rc2
Writing library : Nandub build 1853/release

ID : 0
Format : MPEG-4 Visual
Format profile : Advanced [email protected]
Format settings, BVOP : 2
Format settings, QPel : Yes
Format settings, GMC : No warppoints
Format settings, Matrix : Default (H.263)
Muxing mode : Packed bitstream
Codec ID : XVID
Codec ID/Hint : XviD
Duration : 1h 36mn
Bit rate : 1 799 Kbps
Width : 720 pixels
Height : 400 pixels
Display aspect ratio : 16:9
Frame rate : 23.976 fps
Color space : YUV
Chroma subsampling : 4:2:0
Bit depth : 8 bits
Scan type : Progressive
Compression mode : Lossy
Bits/(Pixel*Frame) : 0.261
Stream size : 1.21 GiB (80%)
Writing library : XviD 1.2.1 (UTC 2008-12-04)

ID : 1
Format : AC-3
Format/Info : Audio Coding 3
Mode extension : CM (complete main)
Codec ID : 2000
Duration : 1h 36mn
Bit rate mode : Constant
Bit rate : 448 Kbps
Channel(s) : 6 channels
Channel positions : Front: L C R, Side: L R, LFE
Sampling rate : 48.0 KHz
Bit depth : 16 bits
Compression mode : Lossy
Stream size : 308 MiB (20%)
Alignment : Split accross interleaves
Interleave, duration : 42 ms (1.00 video frame)
Interleave, preload duration : 500 ms