Abduction (2011) - IMDb

For as long as he can remember, Nathan Harper (Taylor Lautner) has had the uneasy feeling that he’s living someone else’s life. When he stumbles upon an image of himself as a little boy on a missing persons website, all of Nathan’s darkest fears come true: he realizes his parents are not his own and his life is a lie, carefully fabricated to hide something more mysterious and dangerous than he could have ever imagined. Just as he begins to piece together his true identity, Nathan is targeted by a team of trained killers, forcing him on the run with the only person he can trust, his neighbor, Karen (Lily Collins). Every second counts as Nathan and Karen race to evade an army of assassins and federal operatives. But as his opponents close in, Nathan realizes that the only way he’ll survive — and solve the mystery of his elusive biological father — is to stop running and take matters into his own hands.
Wupload :
Get Abduction.2011.HDRiP.CUSTOM.AC3.5.1.XViD-U.S.M.part1.rar on Wupload.com
Get Abduction.2011.HDRiP.CUSTOM.AC3.5.1.XViD-U.S.M.part2.rar on Wupload.com

Fileserve :
Free File Hosting, Online Storage &amp File Upload with FileServe
Free File Hosting, Online Storage &amp File Upload with FileServe

Filejungle :

Filesonic :
Download Abduction.2011.HDRiP.CUSTOM.AC3.5.1.XViD-U.S.M.part1.rar for free on Filesonic.com
Download Abduction.2011.HDRiP.CUSTOM.AC3.5.1.XViD-U.S.M.part2.rar for free on Filesonic.com



Abduction 2011 HDRiP CUSTOM AC3 5.1 XViD - U.S.M




Abduction (2011) - IMDb

ID : 0
Format : MPEG-4 Visual
Format profile : Advanced [email protected]
Format settings, BVOP : 2
Format settings, QPel : No
Format settings, GMC : No warppoints
Format settings, Matrix : Default (MPEG)
Muxing mode : Packed bitstream
Codec ID : XVID
Codec ID/Hint : XviD
Duration : 1h 46mn
Bit rate : 1 456 Kbps
Width : 720 pixels
Height : 288 pixels
Display aspect ratio : 2.500
Frame rate : 23.976 fps
Color space : YUV
Chroma subsampling : 4:2:0
Bit depth : 8 bits
Scan type : Progressive
Compression mode : Lossy
Bits/(Pixel*Frame) : 0.293
Stream size : 1.09 GiB (79%)
Writing library : XviD 64

ID : 1
Format : AC-3
Format/Info : Audio Coding 3
Mode extension : CM (complete main)
Codec ID : 2000
Duration : 1h 46mn
Bit rate mode : Constant
Bit rate : 384 Kbps
Channel(s) : 6 channels
Channel positions : Front: L C R, Side: L R, LFE
Sampling rate : 48.0 KHz
Bit depth : 16 bits
Compression mode : Lossy
Stream size : 294 MiB (21%)
Alignment : Aligned on interleaves
Interleave, duration : 42 ms (1.00 video frame)
Interleave, preload duration : 512 ms


Well after doing our custom dvd and pleased with the output ...we thought what the hell
lets help reach 1000 copies of abduction :lol:
So for this we made a script ...and again cropped the bottom line of subs only.Also filtered
the colouring,brightness and sharpness slightly different to our dvdr,but not by too much.
The audio off our dvd sounded pretty good so we've gone ahead and added to the xvid aswell.
Check the sample for the Q.