Months after Toy Story 3, it is winter break for Bonnie, who is going on vacation to Hawaii with her family for a week. The toys are excited to have a week of relaxation, but Barbie and Ken reveal themselves to have stowed away in Bonnie’s backpack, hoping to join her in Hawaii. Bonnie leaves them in her room, however, much to Ken’s horror when he realizes they are not going to Hawaii. Barbie reveals to Woody that Ken planned to have their first kiss on a beach at sunset (based on a travel brochure), inspiring Woody, Buzz, and the rest of Bonnie’s toys to go all out and recreate Hawaii for the two. After various adventures in “Hawaii”, Ken and Barbie share their first kiss in the snow at sunrise, recreating the scene from the brochure. However, the two step off the edge of the porch without realizing it and end up buried in snow; a post-credits scene shows the other toys trying to free them from a block of ice in which they are now frozen
Wupload :

Fileserve :

Filejungle :

Filesonic :



Complete name : Toy.Story.Toon.Hawaiian.Vacation.READNFO.BRRip.XViD-DTRG.avi
Format : AVI
Format/Info : Audio Video Interleave
File size : 143 MiB
Duration : 5mn 53s
Overall bit rate : 3 399 Kbps
Writing application : VirtualDubMod (build 2540/release)
Writing library : VirtualDubMod build 2540/release

ID : 0
Format : MPEG-4 Visual
Format profile : Advanced [email protected]
Format settings, BVOP : 2
Format settings, QPel : No
Format settings, GMC : No warppoints
Format settings, Matrix : Default (H.263)
Muxing mode : Packed bitstream
Codec ID : XVID
Codec ID/Hint : XviD
Duration : 5mn 53s
Bit rate : 3 005 Kbps
Width : 720 pixels
Height : 400 pixels
Display aspect ratio : 16:9
Frame rate : 23.976 fps
Color space : YUV
Chroma subsampling : 4:2:0
Bit depth : 8 bits
Scan type : Progressive
Compression mode : Lossy
Bits/(Pixel*Frame) : 0.435
Stream size : 127 MiB (88%)
Writing library : XviD 64

ID : 1
Format : AC-3
Format/Info : Audio Coding 3
Mode extension : CM (complete main)
Codec ID : 2000
Duration : 5mn 53s
Bit rate mode : Constant
Bit rate : 384 Kbps
Channel(s) : 6 channels
Channel positions : Front: L C R, Side: L R, LFE
Sampling rate : 48.0 KHz
Bit depth : 16 bits
Compression mode : Lossy
Stream size : 16.2 MiB (11%)
Alignment : Split accross interleaves
Interleave, duration : 42 ms (1.00 video frame)
Interleave, preload duration : 500 ms