Plot: The All Nighter Before Christmas. When the zoo closes for the Christmas holiday, the animals gather to begin work on Kidsmas, their annual holiday festivities mainly designed to delight the younger animals. Each animal is assigned a Kidsmas preparation task to perform, but Julien, desiring a different one, rearranges each animals’ task. Said shuffling results in the lemurs being tasked with obtaining a Christmas tree, while Skipper has to take on the role of Santa. In hopes of being able to find “Santa’s magic,” Skipper and Private set out to locate the jolly old man, only to encounter multiple bell-ringing Santas and such look-alikes. Meanwhile, as the lemurs hunt for a tree before ultimately stealing one akin to the one in Rockefeller Center, chaos ensues at the zoo between different groups of animals over whether decorations should be rock and roll-themed or Dickensian. With such disarray, Skipper believes he has failed when the younger animals arrive for Kidsmas, but his spirits are lifted when the real Santa stops by to reassure him. All then embrace the spirit, singing “It ain’t perfect, but it’s Christmas.”
Wupload :

Fileserve :

Filejungle :

Filesonic :




General Information

Sample Included......: Yes

Source...............: NORDIC.PAL.DVDR-WILDER

Container............: AVI

Length...............:1h 41mn

Size.................:1.37 GiB

Total Bitrate........: 1 667 Kbps

IMDb Information.....:

Genre................: Animation/Family

ID : 0
Format : MPEG-4 Visual
Format profile : Advanced [email protected]
Format settings, BVOP : 2
Format settings, QPel : No
Format settings, GMC : No warppoints
Format settings, Matrix : Default (H.263)
Codec ID : XVID
Codec ID/Hint : XviD
Duration : 1h 41mn
Bit rate : 1 667 Kbps
Width : 720 pixels
Height : 400 pixels
Display aspect ratio : 16:9
Frame rate : 25.000 fps
Color space : YUV
Chroma subsampling : 4:2:0
Bit depth : 8 bits
Scan type : Progressive
Compression mode : Lossy
Bits/(Pixel*Frame) : 0.231
Stream size : 1.18 GiB (86%)
Writing library : XviD 1.2.1 (UTC 2008-12-04)

ID : 1
Format : AC-3
Format/Info : Audio Coding 3
Mode extension : CM (complete main)
Codec ID : 2000
Duration : 1h 41mn
Bit rate mode : Constant
Bit rate : 256 Kbps
Channel(s) : 6 channels
Channel positions : Front: L C R, Side: L R, LFE
Sampling rate : 48.0 KHz
Bit depth : 16 bits
Compression mode : Lossy
Delay relative to video : 940ms
Stream size : 186 MiB (13%)
Alignment : Split accross interleaves
Interleave, duration : 40 ms (1.00 video frame)
Interleave, preload duration : 500 ms

Releasers Notes:

Enjoy with your kids or fire it on to keep em quiet lol!!