Plot: What started as a crazy wager between friends, ended up as a full movie, created and acted by the whole population of the friendly Flemish village of Schellebelle. The renowned actor Heldenbergh (who lives in that village) wrote the scenario and directed, together with the mayor K. Taylor, who happens to be a professional director. The movie tells the story of the farming family Van de Velde, in the aftermath of the First World War. The farmer and his son who have fought in the trenches of the Yser, are still missing in 1919, and the mother has died so the eldest daughter Coralie runs the farm now on her own. She has welcomed 25 orphans during the war, but the Child Welfare Commission wants to put them in an orphanage. And some local notables with a sneaky plan want to take possession of the farm. But Coralie and the orphans fight back.
Wupload :

Fileserve :

Filejungle :

Filesonic :



Format: AVI
Format/Info: Audio Video Interleave
File size: 701 MiB
Duration: 1h 40mn
Overall bit rate: 972 Kbps
Writing application: VirtualDubMod (build 2540/release)
Writing library: VirtualDubMod build 2540/release

ID: 0
Format: MPEG-4 Visual
Format profile: Advanced [email protected]
Format settings, BVOP: Yes
Format settings, QPel: No
Format settings, GMC: No warppoints
Format settings, Matrix: Default (H.263)
Muxing mode: Packed bitstream
Codec ID: XVID
Codec ID/Hint: XviD
Duration: 1h 40mn
Bit rate: 837 Kbps
Width: 640 pixels
Height: 272 pixels
Display aspect ratio: 2.35:1
Frame rate: 25.000 fps
Color space: YUV
Chroma subsampling: 4:2:0
Bit depth: 8 bits
Scan type: Progressive
Bits/(Pixel*Frame): 0.192
Stream size: 603 MiB (86%)
Writing library: XviD 62

ID: 1
Format: MPEG Audio
Format version: Version 1
Format profile: Layer 3
Mode: Joint stereo
Mode extension: MS Stereo
Codec ID: 55
Codec ID/Hint: MP3
Duration: 1h 40mn
Bit rate mode: Variable
Bit rate: 128 Kbps
Channel(s): 2 channels
Sampling rate: 48.0 KHz
Stream size: 88.2 MiB (13%)
Alignment: Aligned on interleaves
Interleave, duration: 24 ms (0.60 video frame)
Interleave, preload duration: 527 ms
Writing library: LAME3.98r
Encoding settings: -m j -V 4 -q 2 -lowpass 17 --abr 128

Release notes:
That's right. This movie is called "Schellebelle 1919"