There are no secrets in this small town. Everyone knows that the Coach´s wife, Flora, ran off and left him. But no one talks to him about it. He still teaches baseball by day and has his wonton noodles with shrimp balls every night at the noodle stand. Silent and solitary, no one knows him well enough to know that he keeps his room the same way it was when Flora was around, with her brightly colored clothes still hanging all over the place. Xiao-Zhun is a sheepish girl, the kind who would apologize and disappear if you bumped into her on the street. Her world is like the elevator she operates in a department store—static, polite, low-key. Even when she catches her boyfriend cheating on her, she stays sweet and smiles like she was trained to do at work. But tonight, she decides to find a better home for her pet blowfish. She takes it across town, to the trashed home of the Coach. They make passionate love in the surreal blue light of his aquarium. Later she wears the colorful clothes of his wife and decides she wants a new life—in fact, she could even pretend to be his wife. Her baby voice sounds so much like Flora´s that the Coach allows her to stay. They live as husband and wife, but the more they approach normalcy, the stranger they really become. Finally one day, the Coach wants to learn this girl´s real name.
Language: Mandarin
Subs: English Inside

Wupload :

Fileserve :

Filejungle :

Filesonic :



Complete name : Blowfish.2011.DVDRip.XviD.AC3-nLiBRA.avi
Format : AVI
Format/Info : Audio Video Interleave
File size : 1.79 GiB
Duration : 1h 27mn
Overall bit rate : 2 928 Kbps
Writing application : VirtualDubMod | || (build 2550/release)
Writing library : VirtualDubMod build 2550/release

ID : 0
Format : MPEG-4 Visual
Format profile : Advanced [email protected]
Format settings, BVOP : 2
Format settings, QPel : No
Format settings, GMC : No warppoints
Format settings, Matrix : Default (H.263)
Muxing mode : Packed bitstream
Codec ID : XVID
Codec ID/Hint : XviD
Duration : 1h 27mn
Bit rate : 2 471 Kbps
Width : 720 pixels
Height : 304 pixels
Display aspect ratio : 2.35:1
Frame rate : 23.976 fps
Color space : YUV
Chroma subsampling : 4:2:0
Bit depth : 8 bits
Scan type : Progressive
Compression mode : Lossy
Bits/(Pixel*Frame) : 0.471
Stream size : 1.51 GiB (84%)
Writing library : XviD 64

ID : 1
Format : AC-3
Format/Info : Audio Coding 3
Mode extension : CM (complete main)
Codec ID : 2000
Duration : 1h 27mn
Bit rate mode : Constant
Bit rate : 448 Kbps
Channel(s) : 6 channels
Channel positions : Front: L C R, Side: L R, LFE
Sampling rate : 48.0 KHz
Bit depth : 16 bits
Compression mode : Lossy
Stream size : 280 MiB (15%)
Alignment : Split accross interleaves
Interleave, duration : 42 ms (1.00 video frame)
Interleave, preload duration : 500 ms