The Howling Reborn [2011]

Complete name: The.Howling.Reborn.2011.DVDRiP.XviD.AC3-SiC.avi
Format : AVI
Format/Info: Audio Video Interleave
File size: 1.37 GiB
Duration : 1h 32mn
Overall bit rate : 2 123 Kbps


ID : 0
Format : MPEG-4 Visual
Format profile : Advanced [email protected]
Format settings, BVOP: 1
Format settings, QPel: No
Format settings, GMC : No warppoints
Format settings, Matrix: Default (H.263)
Codec ID : XVID
Codec ID/Hint: XviD
Duration : 1h 32mn
Bit rate : 1 668 Kbps
Width: 720 pixels
Height : 400 pixels
Display aspect ratio : 16:9
Frame rate : 23.976 fps
Color space: YUV
Chroma subsampling : 4:2:0
Bit depth: 8 bits
Scan type: Progressive
Compression mode : Lossy
Bits/(Pixel*Frame) : 0.242
Stream size: 1.07 GiB (79%)
Writing library: XviD 1.2.1 (UTC 2008-12-04)


ID : 1
Format : AC-3
Format/Info: Audio Coding 3
Mode extension : CM (complete main)
Codec ID : 2000
Duration : 1h 32mn
Bit rate mode: Constant
Bit rate : 448 Kbps
Channel(s) : 6 channels
Channel positions: Front: L C R, Side: L R, LFE
Sampling rate: 48.0 KHz
Bit depth: 16 bits
Compression mode : Lossy
Stream size: 295 MiB (21%)
Alignment: Aligned on interleaves
Interleave, duration : 64 ms (1.53 video frames)
Interleave, preload duration : 832 ms
Title: VTS_02_1 T80 3_2ch 448Kbps DELAY 0ms


Plot: On the eve of his high school graduation, unremarkable Will Kidman finally bonds with the girl he has long yearned for, reclusive Eliana Wynter. But he also discovers a dark secret from his past... that he is about to become a werewolf. Now, in an effort to fight destiny and save their love as well as their lives, they must battle not only Will's growing blood lust but an army of fearsome beasts bent on killing them... and then, us all.

Director: Joe Nimziki
Writers: Joe Nimziki (screenplay), James Robert Johnston
Stars: Ivana Milicevic, Lindsey Shaw and Landon Liboiron