Girl Walks Into A Bar 2011 HDrip XVID AC3 HQ Hive-CM8


A dentist teams up with a feisty would-be assassin to put the final touches on the plan to kill his wife. Once he makes a play for the assassin’s payment, he unknowingly sets off a chain of events that fuels a cross-town journey through the many lounges, bars, strip clubs and the occasional nudist ping pong club scattered across Los Angeles. Along the way, we are introduced to a series of idiosyncratic characters, from gangsters to exotic dancers, from ex-cons to cops, with the odd hatcheck girl and bartender thrown in for good measure.
Wupload :

Fileserve :

Filejungle :

Filesonic :




Thx Hive

CM8 Doing It Right The First Time

Source: 1080p Web HD-Stream

was a lot to fix on that stream, it was rather dark, too much red, strange colouring, framerate wrong,
audio problem at a spot, and that aac audio that likes to get async when converting to avi.
Well, fixed all that to my HQ-Standards and added sharpness too.
got very nice in the end.

has a great cast of many well known actors

Video: 720x304 @bitrate 2000 2pass
Audio: English AC3 2.0 Stereo
Sample: Yes, included

Complete name : Girl.Walks.Into.A.Bar.2011.HDrip.XVID.AC3.HQ.Hive-CM8.avi
Format : AVI
Format/Info : Audio Video Interleave
File size : 1.30 GiB
Duration : 1h 19mn
Overall bit rate : 2 350 Kbps
Writing application : Nandub v1.0rc2
Writing library : Nandub build 1853/release

ID : 0
Format : MPEG-4 Visual
Format profile : Advanced [email protected]
Format settings, BVOP : 2
Format settings, QPel : Yes
Format settings, GMC : No warppoints
Format settings, Matrix : Default (H.263)
Muxing mode : Packed bitstream
Codec ID : XVID
Codec ID/Hint : XviD
Duration : 1h 19mn
Bit rate : 2 085 Kbps
Width : 720 pixels
Height : 304 pixels
Display aspect ratio : 2.35:1
Frame rate : 23.976 fps
Color space : YUV
Chroma subsampling : 4:2:0
Bit depth : 8 bits
Scan type : Progressive
Compression mode : Lossy
Bits/(Pixel*Frame) : 0.397
Stream size : 1.15 GiB (89%)
Writing library : XviD 1.2.1 (UTC 2008-12-04)

ID : 1
Format : AC-3
Format/Info : Audio Coding 3
Mode extension : CM (complete main)
Codec ID : 2000
Duration : 1h 19mn
Bit rate mode : Constant
Bit rate : 256 Kbps
Channel(s) : 2 channels
Channel positions : Front: L R
Sampling rate : 48.0 KHz
Bit depth : 16 bits
Compression mode : Lossy
Stream size : 145 MiB (11%)
Alignment : Split accross interleaves
Interleave, duration : 42 ms (1.00 video frame)
Interleave, preload duration : 500 ms

A sharp-witted comedy that follows a group of apparent strangers in interlocking stories
happening in ten different bars during the course of one evening throughout Los Angeles.

Carla Gugino ... Francine Driver
Gil Bellows ... Emmit
Xander Berkeley ... Moe
Alexis Bledel ... Kim
Emmanuelle Chriqui ... Teresa
Rosario Dawson ... June
Danny DeVito ... Aldo
Robert Forster ... Dodge
Josh Hartnett ... Sam Salazar
Amber Valletta ... Camilla