The Awakening 2011 DVDRip XviD AC3-5 1 Une-CM8

Complete name: The.Awakening.2011.DVDRip.XviD.AC3-5.1.Une-CM8.avi
Format: AVI
Format/Info: Audio Video Interleave
File size: 1.16 GiB
Duration: 1h 42mn
Overall bit rate: 1 630 Kbps
Writing application: VirtualDubMod (build 2178/release)
Writing library: VirtualDubMod build 2178/release

ID: 0
Format: MPEG-4 Visual
Format profile: Advanced [email protected]
Format settings, BVOP: No
Format settings, QPel: No
Format settings, GMC: No warppoints
Format settings, Matrix: Custom
Codec ID: XVID
Codec ID/Hint: XviD
Duration: 1h 42mn
Bit rate: 1 175 Kbps
Width: 720 pixels
Height: 304 pixels
Display aspect ratio: 2.35:1
Frame rate: 25.000 fps
Color space: YUV
Chroma subsampling: 4:2:0
Bit depth: 8 bits
Scan type: Progressive
Compression mode: Lossy
Bits/(Pixel*Frame): 0.215
Stream size: 859 MiB (72%)
Writing library: XviD 1.2.1 (UTC 2008-12-04)

ID: 1
Format: AC-3
Format/Info: Audio Coding 3
Mode extension: CM (complete main)
Codec ID: 2000
Duration: 1h 42mn
Bit rate mode: Constant
Bit rate: 448 Kbps
Channel(s): 6 channels
Channel positions: Front: L C R, Side: L R, LFE
Sampling rate: 48.0 KHz
Bit depth: 16 bits
Compression mode: Lossy
Stream size: 328 MiB (27%)
Alignment: Split accross interleaves
Interleave, duration: 96 ms (2.40 video frames)
Interleave, preload duration: 96 ms

Buy Premium Account And DOWNLOAD Without Any Limit