FireLight.2012.DvdRip.Xvid | 934.93 MB

online info:
rating: 7.6
plot:The incarcerated girls and young women come from troubled - often violent - backgrounds. According to DJ, "They come in [here] so broken...These are girls who've been abused and objectified their whole lives." The film illustrates how many of the young women achieve salvation through joining an elite band of volunteers tasked with battling forest fires, building hiking trails in remote areas and assisting during natural disasters. The volunteers have to survive several weeks of rigorous training, be in peak physical condition and have to learn how to work as a team, often in life-threatening situations. DJ says that he developed the volunteer force "because I wanted to change the way these girls see themselves. To feel strong. To see other people respecting their strength."In the words of Cuba Gooding Jr., "These women fought to save lives. They ended up saving their own."


Format : AVI
Format/Info : Audio Video Interleave
File size : 935 MiB
Duration : 1h 36mn
Overall bit rate : 1 354 Kbps
Writing library : VirtualDub build 33848/release

ID : 0
Format : MPEG-4 Visual
Format profile : Advanced [email protected]
Format settings, BVOP : 1
Format settings, QPel : No
Format settings, GMC : No warppoints
Format settings, Matrix : Custom
Codec ID : XVID
Codec ID/Hint : XviD
Duration : 1h 36mn
Bit rate : 896 Kbps
Width : 720 pixels
Height : 400 pixels
Display aspect ratio : 16:9
Frame rate : 23.976 fps
Color space : YUV
Chroma subsampling : 4:2:0
Bit depth : 8 bits
Scan type : Progressive
Compression mode : Lossy
Bits/(Pixel*Frame) : 0.130
Stream size : 619 MiB (66%)
Writing library : XviD 64

ID : 1
Format : AC-3
Format/Info : Audio Coding 3
Mode extension : CM (complete main)
Codec ID : 2000
Duration : 1h 36mn
Bit rate mode : Constant
Bit rate : 448 Kbps
Channel(s) : 6 channels
Channel positions : Front: L C R, Side: L R, LFE
Sampling rate : 48.0 KHz
Bit depth : 16 bits
Compression mode : Lossy
Stream size : 309 MiB (33%)
Alignment : Split accross interleaves
Interleave, duration : 42 ms (1.00 video frame)
Interleave, preload duration : 500 ms


Looking for cammers or suppliers who can bring unreleased movies/games/etc

servers, account

thanks to 26k, HDscene, Vision, Noir, BTVRG, Legend RG and everyone else we respect

special shout out to everyone at the underground




Download Links :

Say "thanks" in Reply If you like my post, Please!