The Avengers 2012 CAM NEW SOURCE XViD-26K

The Avengers 2012 CAM NEW SOURCE XViD-26K | 1.94 GB



Nick Fury of S.H.I.E.L.D. brings together a team of super humans to form The Avengers to help save the Earth from Loki and his army.


the video is new much more clearer than the old video that was out but this has greek subs... which sucks..there is lot of cam movement!!.. iv had look around for a version with no subs could not find any...

so adjusted the brightnes and colors on the video to make it look nice then rotated and cropped... the video was recorded on very backwards slant.. so had to crop out the left and right parts of the video... then muxed back the audio that was on the origanl source video... may do v2 with cropping the subs off....

added 3 samples showing the cam movement... which can cause the ar to go off... will do a v2 with no subs :)


To all the people who have helped me :P you know who you are

Anything to offer email us @: [email protected]

ID : 0
Format : MPEG-4 Visual
Format profile : Advanced [email protected]
Format settings, BVOP : 2
Format settings, QPel : No
Format settings, GMC : No warppoints
Format settings, Matrix : Default (H.263)
Muxing mode : Packed bitstream
Codec ID : XVID
Codec ID/Hint : XviD
Duration : 2h 11mn
Bit rate : 1 799 Kbps
Width : 720 pixels
Height : 330 pixels
Display aspect ratio : 2.2:1
Frame rate : 30.000 fps
Color space : YUV
Chroma subsampling : 4:2:0
Bit depth : 8 bits
Scan type : Progressive
Compression mode : Lossy
Bits/(Pixel*Frame) : 0.252
Stream size : 1.65 GiB (90%)
Writing library : XviD 64

ID : 1
Format : MPEG Audio
Format version : Version 1
Format profile : Layer 3
Mode : Joint stereo
Mode extension : MS Stereo
Codec ID : 55
Codec ID/Hint : MP3
Duration : 2h 11mn
Bit rate mode : Constant
Bit rate : 192 Kbps
Channel(s) : 2 channels
Sampling rate : 44.1 KHz
Compression mode : Lossy
Stream size : 181 MiB (10%)
Alignment : Aligned on interleaves
Interleave, duration : 26 ms (0.78 video frame)




Download Links :

Say "thanks" in Reply If you like my post, Please!